<?xml version="1.0" standalone="no"?>
<!DOCTYPE svg PUBLIC "-//W3C//DTD SVG 1.1//EN" "http://www.w3.org/Graphics/SVG/1.1/DTD/svg11.dtd" >
<svg xmlns="http://www.w3.org/2000/svg" xmlns:xlink="http://www.w3.org/1999/xlink" version="1.1">
<metadata>
Created by FontForge 20170731 at Wed Jun  1 15:22:34 2022
 By Aleksey,,,
Copyright (c) 1995 ParaGraph Intl., (c) 1998 ParaType Inc., ParaType Ltd. All rights reserved.
</metadata>
<defs>
<font id="FuturaPT-Bold" horiz-adv-x="1024" >
  <font-face 
    font-family="Futura PT Bold"
    font-weight="700"
    font-stretch="normal"
    units-per-em="2048"
    panose-1="2 11 9 2 2 2 4 2 2 3"
    ascent="1563"
    descent="-485"
    x-height="915"
    cap-height="1366"
    bbox="-801 -532 2644 2005"
    underline-thickness="102"
    underline-position="-307"
    unicode-range="U+0020-FB02"
  />
<missing-glyph horiz-adv-x="477" 
 />
    <glyph glyph-name="afii10017.var.accented" unicode="&#x410;`" horiz-adv-x="1454" 
d="M1061 0l-84 229h-496l-92 -229h-375l525 1366h387l514 -1366h-379zM580 500h303l-154 442zM836 1903l206 -150l-315 -278l-152 112z" />
    <glyph glyph-name="afii10022.var.accented" unicode="&#x415;`" horiz-adv-x="1001" 
d="M920 1366v-301h-422v-227h399v-301h-399v-236h422v-301h-777v1366h777zM608 1903l207 -150l-315 -278l-152 112z" />
    <glyph glyph-name="afii10026.var.accented" unicode="&#x418;`" horiz-adv-x="1517" 
d="M143 1366h357v-860l512 860h362v-1366h-356v860l-512 -860h-363v1366zM866 1903l207 -150l-315 -278l-152 112z" />
    <glyph glyph-name="afii10032.var.accented" unicode="&#x41e;`" horiz-adv-x="1671" 
d="M1589 682q0 -140 -54.5 -274.5t-160.5 -235.5q-103 -99 -243.5 -151t-294.5 -52t-295 52.5t-244 150.5q-106 101 -160.5 235.5t-54.5 274.5q0 141 54.5 276.5t160.5 235.5q103 98 244 150.5t295 52.5t294.5 -52t243.5 -151q106 -100 160.5 -235.5t54.5 -276.5zM836 1053
q-77 0 -150 -27.5t-127 -81.5q-108 -105 -108 -268q0 -150 108 -254q114 -109 277 -109q167 0 274 107q50 50 80.5 118.5t30.5 143.5q0 76 -30.5 145t-80.5 117q-56 53 -128.5 81t-145.5 28zM946 1903l207 -150l-315 -278l-152 112z" />
    <glyph glyph-name="afii10037.var.accented" unicode="&#x423;`" horiz-adv-x="1275" 
d="M0 1366h397l260 -608l228 608h379l-615 -1366h-375l191 383zM745 1903l207 -150l-315 -278l-152 112z" />
    <glyph glyph-name="afii10045.var.accented" unicode="&#x42b;`" horiz-adv-x="1800" 
d="M1300 0v1366h357v-1366h-357zM143 0v1366h357v-532h172q52 0 95 -3.5t102 -15t113 -39t97 -69.5q109 -107 109 -289t-103 -287q-42 -42 -96 -70t-115.5 -40.5t-111 -16.5t-111.5 -4h-508zM500 274h137q113 0 154 41q36 36 36 103q0 65 -39 100q-43 41 -151 41h-137v-285z
M1008 1903l206 -150l-315 -278l-151 112z" />
    <glyph glyph-name="afii10047.var.accented" unicode="&#x42d;`" horiz-adv-x="1265" 
d="M102 72v354q56 -56 138 -96q93 -45 217 -45q150 0 241 75q91 76 115 199h-520v275h508q-22 110 -105 178q-89 71 -239 71q-121 0 -217 -51q-81 -45 -138 -108v370q204 101 402 101q303 0 489 -193q88 -92 139.5 -223.5t51.5 -290.5q0 -154 -53.5 -292.5t-151.5 -239.5
q-99 -102 -219 -144.5t-268 -42.5q-127 0 -236 35q-67 20 -154 68zM639 1903l207 -150l-316 -278l-151 112z" />
    <glyph glyph-name="afii10048.var.accented" unicode="&#x42e;`" horiz-adv-x="2224" 
d="M498 838h176q43 237 223 391q195 168 487 168q330 0 539 -201q103 -97 161 -231t58 -281q0 -145 -58.5 -280.5t-160.5 -233.5q-209 -201 -539 -201q-153 0 -271.5 43t-219.5 133q-190 172 -219 418h-176v-563h-355v1366h355v-528zM1397 1053q-160 0 -273 -113
q-49 -49 -78.5 -116.5t-29.5 -141.5q0 -156 112 -262q110 -107 267 -107q76 0 145 30t119 79q51 51 82 123.5t31 142.5q0 68 -29.5 136.5t-83.5 121.5q-110 107 -262 107zM1221 1903l206 -150l-315 -278l-151 112z" />
    <glyph glyph-name="afii10049.var.accented" unicode="&#x42f;`" horiz-adv-x="1265" 
d="M29 0l381 514q-117 19 -203 107q-107 110 -107 286q0 99 30.5 183t82.5 139q128 137 383 137h526v-1366h-356v465h-35l-293 -465h-409zM766 739v328h-100q-103 0 -154 -47q-47 -41 -47 -117q0 -74 43 -117q50 -47 158 -47h100zM741 1903l207 -150l-315 -278l-152 112z
" />
    <glyph glyph-name="afii10023.var.accented" unicode="&#x401;`" horiz-adv-x="1001" 
d="M920 1366v-301h-422v-227h399v-301h-399v-236h422v-301h-777v1366h777zM565 1903l156 -117l-295 -279l-100 80zM61 1698q0 58 40.5 98.5t99.5 40.5t99 -40.5t40 -98.5t-40 -98.5t-99 -40.5t-99.5 40.5t-40.5 98.5zM717 1698q0 58 40.5 98.5t98.5 40.5t98.5 -40.5
t40.5 -98.5t-40.5 -98.5t-98.5 -40.5t-98.5 40.5t-40.5 98.5z" />
    <glyph glyph-name="afii10065.var.accented" unicode="&#x430;`" horiz-adv-x="1261" 
d="M821 827v88h328v-915h-328v100q-96 -131 -284 -131q-191 0 -330 146q-131 140 -131 336q0 225 141 366q60 60 146.5 94.5t183.5 34.5q166 0 274 -119zM621 668q-81 0 -144 -60q-65 -62 -65 -149q0 -90 63 -150q28 -26 68 -43.5t80 -17.5q84 0 147 63q61 61 61 148
q0 88 -63 149q-64 60 -147 60zM743 1493l207 -150l-315 -278l-152 113z" />
    <glyph glyph-name="afii10070.var.accented" unicode="&#x435;`" horiz-adv-x="1159" 
d="M1083 432v-35h-682q0 -40 15 -82.5t43 -70.5q45 -45 135 -45q63 0 106 24q40 24 58 62h313q-31 -112 -110 -189q-131 -127 -373 -127q-239 0 -379 140q-135 135 -135 346q0 220 137 354q137 133 375 133q218 0 352 -125q145 -138 145 -385zM412 586h370q-13 58 -53 98
q-49 49 -135 49q-84 0 -133 -49q-41 -45 -49 -98zM694 1493l207 -150l-315 -278l-152 113z" />
    <glyph glyph-name="afii10074.var.accented" unicode="&#x438;`" horiz-adv-x="1200" 
d="M113 915h327v-471l363 471h284v-915h-327v483l-359 -483h-288v915zM711 1493l207 -150l-316 -278l-151 113z" />
    <glyph glyph-name="afii10080.var.accented" unicode="&#x43e;`" horiz-adv-x="1251" 
d="M627 668q-39 0 -79.5 -16.5t-68.5 -43.5q-63 -60 -63 -149q0 -83 63 -146q61 -61 148 -61q84 0 145 61q64 61 64 146q0 38 -17 78.5t-47 70.5q-28 27 -67.5 43.5t-77.5 16.5zM1176 459q0 -199 -142 -338q-155 -152 -409 -152t-408 152q-141 138 -141 338q0 199 141 336
q155 151 408 151q250 0 409 -151q142 -138 142 -336zM741 1493l207 -150l-315 -278l-152 113z" />
    <glyph glyph-name="afii10085.var.accented" unicode="&#x443;`" horiz-adv-x="1236" 
d="M135 -469l307 594l-442 790h381l244 -469l237 469h375l-735 -1384h-367zM731 1493l207 -150l-315 -278l-152 113z" />
    <glyph glyph-name="afii10093.var.accented" unicode="&#x44b;`" horiz-adv-x="1519" 
d="M1079 0v915h328v-915h-328zM440 610h224q158 0 245 -82q82 -80 82 -219q0 -141 -78 -219q-43 -43 -110.5 -66.5t-138.5 -23.5h-551v915h327v-305zM440 213h123q24 0 50 8.5t38 20.5q23 23 23 65q0 45 -25 66q-31 24 -90 24h-119v-184zM872 1493l207 -150l-315 -278
l-152 113z" />
    <glyph glyph-name="afii10095.var.accented" unicode="&#x44d;`" horiz-adv-x="974" 
d="M94 31v274q100 -88 246 -88q101 0 158 35q59 36 77 104h-352v213h352q-28 69 -86 101q-58 30 -143 30q-80 0 -145 -28q-51 -20 -107 -72v270q133 74 307 74q230 0 363 -129q135 -130 135 -352q0 -128 -40.5 -221t-100.5 -148q-132 -125 -369 -125q-149 0 -295 62z
M520 1493l207 -150l-315 -278l-152 113z" />
    <glyph glyph-name="afii10096.var.accented" unicode="&#x44e;`" horiz-adv-x="1667" 
d="M1042 668q-87 0 -147 -60q-64 -64 -64 -149q0 -84 64 -148q56 -59 147 -59q87 0 146 59q61 61 61 152q0 82 -57 145q-56 60 -150 60zM440 606h97q48 146 174 240q135 100 329 100q127 0 232.5 -41t177.5 -110q63 -63 102 -150t39 -182t-36 -185t-105 -157
q-65 -65 -170 -108.5t-250 -43.5q-250 0 -387 140q-41 43 -72 106t-43 133h-88v-348h-327v915h327v-309zM950 1493l207 -150l-315 -278l-152 113z" />
    <glyph glyph-name="afii10097.var.accented" unicode="&#x44f;`" horiz-adv-x="1069" 
d="M57 0l254 319q-93 18 -159 80q-72 72 -72 197q0 138 82 223q51 54 127.5 75t183.5 21h483v-915h-327v291h-27l-201 -291h-344zM629 492v210h-99q-72 0 -102 -28q-29 -29 -29 -78q0 -51 31 -78q33 -26 96 -26h103zM647 1493l207 -150l-315 -278l-152 113z" />
    <glyph glyph-name="afii10071.var.accented" unicode="&#x451;`" horiz-adv-x="1159" 
d="M1083 432v-35h-682q0 -40 15 -82.5t43 -70.5q45 -45 135 -45q63 0 106 24q40 24 58 62h313q-31 -112 -110 -189q-131 -127 -373 -127q-239 0 -379 140q-135 135 -135 346q0 220 137 354q137 133 375 133q218 0 352 -125q145 -138 145 -385zM412 586h370q-13 58 -53 98
q-49 49 -135 49q-84 0 -133 -49q-41 -45 -49 -98zM602 1493l154 -117l-291 -278l-98 80zM760 1284q0 60 41.5 101.5t101.5 41.5t102 -41.5t42 -101.5t-42 -101.5t-102 -41.5t-101.5 41.5t-41.5 101.5zM80 1284q0 60 41.5 101.5t101.5 41.5t102 -41.5t42 -101.5t-42 -101.5
t-102 -41.5t-101.5 41.5t-41.5 101.5z" />
    <glyph glyph-name="fi" unicode="fi" horiz-adv-x="1196" 
d="M694 647h-229v-647h-328v647h-114v268h114v113q0 111 25.5 199t99.5 159q65 63 160.5 96.5t200.5 33.5q103 0 204 -31.5t162 -91.5q115 -111 115 -308v-47h-328v31q0 82 -41 123t-114 41q-69 0 -113 -47q-43 -45 -43 -142v-129h229v-268zM776 915h328v-915h-328v915z" />
    <glyph glyph-name="fl" unicode="fl" horiz-adv-x="1216" 
d="M694 647h-229v-647h-328v647h-114v268h114v121q0 107 25.5 192.5t99.5 157.5q134 130 356 130q107 0 206.5 -34.5t164.5 -101.5q72 -74 93.5 -158t21.5 -198v-1024h-328v1032q0 111 -41 156q-42 45 -112 45q-71 0 -115 -47q-43 -47 -43 -142v-129h229v-268z" />
    <glyph glyph-name=".notdef" horiz-adv-x="477" 
 />
    <glyph glyph-name=".null" horiz-adv-x="0" 
 />
    <glyph glyph-name="nonmarkingreturn" horiz-adv-x="682" 
 />
    <glyph glyph-name="space" unicode=" " horiz-adv-x="477" 
 />
    <glyph glyph-name="exclam" unicode="!" horiz-adv-x="698" 
d="M518 465h-340v901h340v-901zM350 -39q-85 0 -149 64t-64 149q0 86 64 150q63 63 149 63q87 0 152 -65q59 -59 59 -148q0 -88 -61 -149q-64 -64 -150 -64z" />
    <glyph glyph-name="quotedbl" unicode="&#x22;" horiz-adv-x="845" 
d="M379 1366l-51 -549h-195l-49 549h295zM762 1366l-49 -549h-197l-49 549h295z" />
    <glyph glyph-name="numbersign" unicode="#" horiz-adv-x="1228" 
d="M973 612h207l-35 -239h-209l-59 -373h-275l62 373h-175l-59 -373h-270l61 373h-209l37 239h207l29 170h-207l37 238h207l55 346h270l-57 -346h174l55 346h273l-56 -346h205l-37 -238h-205zM700 612l27 170h-174l-27 -170h174z" />
    <glyph glyph-name="dollar" unicode="$" horiz-adv-x="1228" 
d="M547 1587h205v-225q148 -9 309 -105l-135 -262q-113 88 -230 88q-84 0 -123 -36q-30 -26 -30 -68q0 -40 28 -68q35 -32 95 -51l106 -37q53 -18 80.5 -28.5t74.5 -38t83 -62.5q102 -99 102 -250q0 -189 -115 -309q-43 -45 -109 -80t-136 -53v-231h-205v221q-119 3 -232 49
q-107 45 -198 117l147 274q71 -68 142 -104q96 -47 186 -47q86 0 133 47q37 37 37 86q0 48 -41 78q-27 19 -92 40l-121 41q-156 54 -225 127q-88 91 -88 238q0 175 102 289q96 107 250 135v225z" />
    <glyph glyph-name="percent" unicode="%" horiz-adv-x="1832" 
d="M438 711q-181 0 -284 108q-86 92 -86 221q0 66 22 127.5t62 104.5q97 108 286 108q187 0 291 -108q86 -90 86 -225q0 -136 -88 -228q-103 -108 -289 -108zM432 0l791 1366h178l-793 -1366h-176zM442 1200q-68 0 -112 -47q-41 -44 -41 -106q0 -71 53 -117q40 -37 100 -37
q63 0 109 43q45 45 45 111q0 68 -49 114q-42 39 -105 39zM1393 473q-69 0 -113 -47q-41 -44 -41 -107q0 -70 53 -116q40 -37 101 -37q62 0 108 43q45 45 45 110q0 69 -49 115q-42 39 -104 39zM1389 -16q-182 0 -285 108q-86 92 -86 221q0 66 22 127.5t62 104.5
q97 108 287 108q186 0 290 -108q86 -90 86 -226q0 -135 -88 -227q-103 -108 -288 -108z" />
    <glyph glyph-name="ampersand" unicode="&#x26;" horiz-adv-x="1548" 
d="M1229 717l201 -195q-80 -101 -187 -198l305 -324h-442l-119 125q-213 -156 -459 -156q-218 0 -335 115q-111 106 -111 270q0 160 102 262q38 40 100.5 76.5t123.5 57.5q-45 52 -80 108q-47 77 -47 168q0 68 28 134t76 116q119 121 322 121q200 0 317 -113
q53 -52 81 -120.5t28 -135.5q0 -124 -95 -219q-69 -69 -159 -107l172 -180q99 92 178 195zM793 340l-215 231q-74 -42 -104 -84q-25 -37 -25 -75q0 -59 40 -93q43 -38 117 -38q93 0 187 59zM616 1042q0 -37 37 -92q22 -32 72 -82q41 21 82 62q43 49 43 100q0 61 -37 94
q-34 31 -82 31q-45 0 -78 -29q-37 -32 -37 -84z" />
    <glyph glyph-name="quotesingle" unicode="'" horiz-adv-x="460" 
d="M379 1366l-51 -549h-195l-49 549h295z" />
    <glyph glyph-name="parenleft" unicode="(" horiz-adv-x="724" 
d="M629 -262l-232 -123q-74 108 -118 212.5t-82 246.5q-32 124 -46 229.5t-14 249.5q0 287 76 537q62 202 184 403l232 -123q-106 -195 -152 -371q-25 -93 -41 -214.5t-16 -221.5q0 -96 14 -215t35 -209q48 -209 160 -401z" />
    <glyph glyph-name="parenright" unicode=")" horiz-adv-x="724" 
d="M328 -385l-232 123q112 192 160 401q21 90 35 209t14 215q0 100 -16 221.5t-41 214.5q-46 176 -152 371l232 123q122 -201 184 -403q76 -250 76 -539q0 -142 -14 -247.5t-46 -229.5q-38 -142 -82 -246.5t-118 -212.5z" />
    <glyph glyph-name="asterisk" unicode="*" horiz-adv-x="1325" 
d="M358 1354l211 -90l-20 229h225l-20 -229l213 90l69 -211l-225 -53l152 -175l-181 -131l-120 195l-119 -195l-181 131l152 172l-225 54z" />
    <glyph glyph-name="plus" unicode="+" 
d="M68 573v246h311v314h266v-314h311v-246h-311v-313h-266v313h-311z" />
    <glyph glyph-name="comma" unicode="," horiz-adv-x="851" 
d="M-18 -305l256 647h307l-352 -647h-211z" />
    <glyph glyph-name="hyphen" unicode="-" horiz-adv-x="722" 
d="M102 414v272h519v-272h-519z" />
    <glyph glyph-name="period" unicode="." horiz-adv-x="620" 
d="M311 -39q-85 0 -149 64t-64 149q0 86 64 150q63 63 149 63q87 0 152 -65q59 -59 59 -148q0 -88 -61 -149q-64 -64 -150 -64z" />
    <glyph glyph-name="slash" unicode="/" horiz-adv-x="1376" 
d="M-61 -385l1046 1878h268l-1048 -1878h-266z" />
    <glyph glyph-name="zero" unicode="0" horiz-adv-x="1228" 
d="M614 1079q-62 0 -108 -43q-53 -45 -86 -150t-33 -206q0 -93 32 -200t87 -156q46 -43 108 -43q63 0 109 43q54 47 86.5 152.5t32.5 201.5q0 97 -34 205t-85 153q-46 43 -109 43zM1194 682q0 -176 -54 -320t-149 -237q-78 -76 -176.5 -116t-200.5 -40t-200 40t-176 116
q-95 93 -149 237t-54 320q0 177 54 321.5t149 237.5q78 76 176 116t200 40t200.5 -40t176.5 -116q95 -93 149 -237.5t54 -321.5z" />
    <glyph glyph-name="one" unicode="1" horiz-adv-x="1228" 
d="M479 0v1065h-194v301h549v-1366h-355z" />
    <glyph glyph-name="two" unicode="2" horiz-adv-x="1228" 
d="M1149 301v-301h-1096l346 362q182 191 281 347q74 114 74 213q0 86 -41 131q-36 41 -101 41q-74 0 -118 -56q-45 -59 -50 -168h-366q1 123 44.5 219.5t106.5 159.5q148 148 387 148q243 0 385 -142q134 -134 134 -335q0 -122 -51.5 -217t-151.5 -189l-230 -213h447z" />
    <glyph glyph-name="three" unicode="3" horiz-adv-x="1228" 
d="M57 467h363q3 -85 55 -137q51 -54 139 -54q84 0 140 60q41 46 41 113q0 77 -54 120q-47 39 -131 39q-35 0 -59 -8v240q91 -13 145 34q45 40 45 97q0 27 -10.5 55t-25.5 43q-37 37 -101 37q-63 0 -98 -35q-47 -44 -47 -121h-330q6 99 43.5 180.5t89.5 133.5
q128 133 361 133q217 0 340 -121q110 -110 110 -264q0 -95 -41 -168q-40 -72 -104 -105q100 -37 162 -125q57 -83 57 -200q0 -178 -121 -299q-146 -146 -408 -146q-239 0 -391 142q-63 56 -111 146t-59 210z" />
    <glyph glyph-name="four" unicode="4" horiz-adv-x="1228" 
d="M1012 1366v-836h166v-272h-166v-258h-328v258h-661v227l526 881h463zM362 530h322v557z" />
    <glyph glyph-name="five" unicode="5" horiz-adv-x="1228" 
d="M1014 1366v-301h-473l-25 -152q70 11 111 11q230 0 360 -136q125 -125 125 -323q0 -207 -131 -342q-149 -154 -426 -154q-266 0 -461 123l53 332q82 -76 164 -111q99 -47 205 -47q113 0 178 68q54 57 54 139q0 91 -66 148q-75 67 -246 67q-138 0 -252 -57l119 735h711z
" />
    <glyph glyph-name="six" unicode="6" horiz-adv-x="1228" 
d="M547 1366h403l-389 -465q95 43 191 43q80 0 162 -33t147 -98q129 -129 129 -326q0 -215 -141 -356q-162 -162 -437 -162q-286 0 -448 166q-125 129 -125 320q0 244 203 510zM606 250q95 0 158 63t63 156q0 83 -63 143q-66 64 -158 64q-87 0 -153 -60q-68 -62 -68 -141
q0 -94 59 -156q66 -69 162 -69z" />
    <glyph glyph-name="seven" unicode="7" horiz-adv-x="1228" 
d="M119 0l622 1065h-569v301h1120l-782 -1366h-391z" />
    <glyph glyph-name="eight" unicode="8" horiz-adv-x="1228" 
d="M856 719q103 -32 176 -105q105 -102 105 -241q0 -147 -111 -258q-146 -146 -414 -146q-263 0 -407 144q-54 54 -83.5 123t-29.5 137q0 66 28.5 133.5t72.5 111.5q32 32 79.5 59.5t92.5 41.5q-73 28 -123 78q-92 92 -92 217q0 75 30 142.5t82 115.5q64 59 159 92t206 33
q109 0 200 -34.5t152 -96.5q100 -100 100 -250q0 -129 -84 -213q-56 -56 -139 -84zM618 1159q-68 0 -112 -47q-41 -44 -41 -104q0 -53 43 -99q42 -45 108 -45q60 0 101 41q47 47 47 105q0 64 -47 108q-44 41 -99 41zM614 575q-64 0 -114 -47q-49 -49 -49 -112q0 -68 47 -115
q49 -49 116 -49q68 0 115 47q49 49 49 117q0 66 -49 112q-50 47 -115 47z" />
    <glyph glyph-name="nine" unicode="9" horiz-adv-x="1228" 
d="M682 0h-401l387 461q-79 -43 -183 -43q-185 0 -313 125q-137 135 -137 329q0 210 137 353q168 172 449 172q276 0 438 -162q65 -67 100 -155t35 -183q0 -234 -207 -502zM625 1116q-93 0 -158 -65q-68 -68 -68 -156q0 -85 66 -147q65 -62 160 -62q90 0 153 57
q31 28 51.5 72t20.5 84q0 39 -19 81.5t-47 70.5q-69 65 -159 65z" />
    <glyph glyph-name="colon" unicode=":" horiz-adv-x="620" 
d="M311 520q-85 0 -149 64t-64 149q0 86 64 150q63 63 149 63q87 0 152 -65q59 -59 59 -148q0 -88 -61 -149q-64 -64 -150 -64zM311 -31q-85 0 -149 64t-64 149q0 86 64 150q63 63 149 63q87 0 152 -65q59 -59 59 -148q0 -88 -61 -149q-64 -64 -150 -64z" />
    <glyph glyph-name="semicolon" unicode=";" horiz-adv-x="804" 
d="M-18 -305l256 647h307l-352 -647h-211zM379 520q-86 0 -150 64q-63 63 -63 149q0 87 63 150t150 63q86 0 151 -65q60 -60 60 -148q0 -87 -62 -149q-64 -64 -149 -64z" />
    <glyph glyph-name="less" unicode="&#x3c;" 
d="M68 797l888 450v-262l-608 -301l608 -303v-262l-888 454v224z" />
    <glyph glyph-name="equal" unicode="=" 
d="M68 758v231h888v-231h-888zM68 403v232h888v-232h-888z" />
    <glyph glyph-name="greater" unicode="&#x3e;" 
d="M956 571l-888 -452v264l608 301l-608 301v262l888 -452v-224z" />
    <glyph glyph-name="question" unicode="?" horiz-adv-x="1120" 
d="M711 473h-334v332q38 -10 69 -10q126 0 193 67q47 47 47 113q0 61 -35 96q-36 39 -98 39q-56 0 -88 -35q-37 -37 -37 -102h-360q4 91 38 166t84 125q133 133 357 133q221 0 362 -133q129 -122 129 -293q0 -148 -98 -258q-92 -102 -229 -131v-109zM553 -31q-86 0 -150 64
q-63 63 -63 149q0 87 63 150t148 63q89 0 154 -65q59 -59 59 -148q0 -87 -62 -149q-64 -64 -149 -64z" />
    <glyph glyph-name="at" unicode="@" horiz-adv-x="1501" 
d="M952 930l15 78l182 -2l-76 -388q-12 -58 -12 -81q0 -72 45 -72q31 0 61 27q46 39 76.5 126t30.5 168q0 89 -34.5 172.5t-90.5 137.5q-61 59 -157 94t-195 35q-229 0 -389 -160q-162 -162 -162 -397q0 -118 45 -225t125 -179q141 -125 383 -125q179 0 368 62l41 -164
q-201 -62 -415 -62q-310 0 -508 183q-103 95 -160 229.5t-57 282.5q0 151 58 285.5t153 226.5q102 99 240.5 153t268.5 54q137 0 268 -50t222 -149q72 -77 114 -181t42 -223q0 -112 -39.5 -210t-106.5 -168q-90 -93 -190 -93q-47 0 -94.5 27.5t-65.5 83.5
q-44 -62 -111 -95.5t-143 -33.5q-109 0 -186 74q-103 100 -103 247q0 81 30.5 157.5t82.5 135.5q108 117 246 117q55 0 108.5 -24t89.5 -74zM778 838q-58 0 -108 -50q-66 -63 -66 -161q0 -65 41 -109q35 -35 88 -35q60 0 109 49q30 32 47.5 77t17.5 87q0 66 -43 109
q-38 33 -86 33z" />
    <glyph glyph-name="A" unicode="A" horiz-adv-x="1454" 
d="M1061 0l-84 229h-496l-92 -229h-375l525 1366h387l514 -1366h-379zM580 500h303l-154 442z" />
    <glyph glyph-name="B" unicode="B" horiz-adv-x="1265" 
d="M713 0h-570v1366h529q202 0 299 -106q84 -91 84 -256q0 -91 -39 -168q-41 -76 -111 -107q114 -13 187 -82q92 -89 92 -250q0 -167 -101 -268q-58 -59 -153 -94t-217 -35zM498 1094v-267h65q94 0 135 43q33 33 33 91q0 54 -33 92q-41 41 -135 41h-65zM498 563v-287h80
q170 0 219 56q28 32 28 88q0 64 -34 98q-20 20 -59 30.5t-72 12.5t-89 2h-73z" />
    <glyph glyph-name="C" unicode="C" horiz-adv-x="1206" 
d="M1124 457v-420q-105 -38 -173 -53t-134 -15q-167 0 -301 56.5t-227 148.5q-99 99 -153 231t-54 267q0 143 56 275t151 229t229 155t287 58q145 0 319 -70v-424q-122 149 -309 149q-145 0 -246 -90q-118 -110 -118 -280q0 -73 28.5 -144.5t81.5 -121.5q46 -43 113.5 -69
t140.5 -26q178 0 309 144z" />
    <glyph glyph-name="D" unicode="D" horiz-adv-x="1423" 
d="M639 0h-496v1366h465q348 0 543 -188q190 -183 190 -498q0 -295 -178 -473q-90 -90 -225 -148.5t-299 -58.5zM498 1065v-764h71q199 0 299 98q105 100 105 281q0 95 -28 173.5t-79 125.5q-56 52 -126.5 69t-155.5 17h-86z" />
    <glyph glyph-name="E" unicode="E" horiz-adv-x="1001" 
d="M920 1366v-301h-422v-227h399v-301h-399v-236h422v-301h-777v1366h777z" />
    <glyph glyph-name="F" unicode="F" horiz-adv-x="993" 
d="M926 1366v-301h-428v-227h389v-301h-389v-537h-355v1366h783z" />
    <glyph glyph-name="G" unicode="G" horiz-adv-x="1585" 
d="M799 498v276h704q0 -210 -50 -356.5t-169 -257.5q-185 -172 -481 -172q-326 0 -524 202q-86 86 -141.5 211.5t-55.5 282.5q0 156 55.5 288t149.5 224q201 201 530 201q217 0 369 -92q77 -48 141.5 -123.5t102.5 -157.5l-338 -139q-32 82 -99 137q-82 68 -190 68
q-139 0 -234 -95q-57 -57 -87.5 -143t-30.5 -170q0 -178 108 -295q98 -104 250 -104q122 0 197 63q69 56 84 152h-291z" />
    <glyph glyph-name="H" unicode="H" horiz-adv-x="1509" 
d="M498 1366v-510h512v510h356v-1366h-356v553h-512v-553h-355v1366h355z" />
    <glyph glyph-name="I" unicode="I" horiz-adv-x="641" 
d="M143 1366h355v-1366h-355v1366z" />
    <glyph glyph-name="J" unicode="J" horiz-adv-x="958" 
d="M461 1366h354v-940q0 -110 -22 -182.5t-95 -145.5q-129 -129 -333 -129q-119 0 -215 62q-80 54 -136 139l232 238q3 -30 17 -62.5t32 -46.5q32 -25 67 -25t62 23q37 35 37 137v932z" />
    <glyph glyph-name="K" unicode="K" horiz-adv-x="1433" 
d="M498 1366v-563l434 563h438l-543 -647l592 -719h-458l-463 592v-592h-355v1366h355z" />
    <glyph glyph-name="L" unicode="L" horiz-adv-x="962" 
d="M143 1366h355v-1065h426v-301h-781v1366z" />
    <glyph glyph-name="M" unicode="M" horiz-adv-x="1873" 
d="M434 0h-352l231 1366h351l276 -729l293 729h354l205 -1366h-354l-101 786l-329 -786h-142l-315 786z" />
    <glyph glyph-name="N" unicode="N" horiz-adv-x="1648" 
d="M498 0h-355v1366h355l653 -836v836h354v-1366h-354l-653 836v-836z" />
    <glyph glyph-name="O" unicode="O" horiz-adv-x="1671" 
d="M1589 682q0 -140 -54.5 -274.5t-160.5 -235.5q-103 -99 -243.5 -151t-294.5 -52t-295 52.5t-244 150.5q-106 101 -160.5 235.5t-54.5 274.5q0 141 54.5 276.5t160.5 235.5q103 98 244 150.5t295 52.5t294.5 -52t243.5 -151q106 -100 160.5 -235.5t54.5 -276.5zM836 1053
q-77 0 -150 -27.5t-127 -81.5q-108 -105 -108 -268q0 -150 108 -254q114 -109 277 -109q167 0 274 107q50 50 80.5 118.5t30.5 143.5q0 76 -30.5 145t-80.5 117q-56 53 -128.5 81t-145.5 28z" />
    <glyph glyph-name="P" unicode="P" horiz-adv-x="1226" 
d="M721 453h-223v-453h-355v1366h566q218 0 346 -123q73 -70 100 -151.5t27 -180.5q0 -101 -24.5 -185.5t-96.5 -154.5t-156.5 -94t-183.5 -24zM498 1079v-340h118q103 0 150 43q45 39 45 125q0 82 -41 123q-47 49 -152 49h-120z" />
    <glyph glyph-name="Q" unicode="Q" horiz-adv-x="1671" 
d="M1407 217l235 -242l-325 -49l-115 131q-161 -88 -358 -88q-362 0 -570 226q-95 101 -143.5 231t-48.5 262q0 143 56.5 275t154.5 227q103 100 243.5 153.5t297.5 53.5q151 0 294.5 -52.5t247.5 -152.5q95 -91 153 -223.5t58 -290.5q0 -146 -55 -275q-46 -107 -125 -186z
M725 545l334 43l94 -103q64 91 64 201q0 64 -30 133.5t-81 120.5q-54 54 -128.5 83.5t-143.5 29.5q-75 0 -146.5 -29t-124.5 -84q-52 -54 -81 -126.5t-29 -147.5q0 -74 28.5 -139t73.5 -109q50 -48 124 -76.5t152 -28.5q49 0 111 15z" />
    <glyph glyph-name="R" unicode="R" horiz-adv-x="1284" 
d="M143 1366h553q218 0 334 -121q57 -58 87 -140t30 -167q0 -179 -109 -285q-75 -73 -188 -94l428 -559h-440l-340 524v-524h-355v1366zM498 1092v-338h67q114 0 172 55q45 45 45 115t-47 114q-54 54 -170 54h-67z" />
    <glyph glyph-name="S" unicode="S" horiz-adv-x="1169" 
d="M82 123l151 287q64 -60 146 -100t168 -40q94 0 137 47q35 35 35 86q0 48 -39 82q-6 5 -12 9.5t-14.5 9t-14.5 8t-18 8t-18.5 6.5t-22 7t-22 7.5t-26.5 8.5t-28 8l-92 29q-137 43 -197 110q-78 85 -78 242q0 205 125 330q129 129 350 129q100 0 212 -29.5t210 -81.5
l-141 -276q-116 92 -234 92q-73 0 -116 -41q-35 -35 -35 -74q0 -38 18 -61q29 -35 119 -62l109 -33q55 -17 88.5 -30t79 -41t79.5 -64q50 -53 69.5 -110.5t19.5 -132.5q0 -215 -129 -344q-81 -81 -180 -110.5t-224 -29.5q-146 0 -268 45q-100 35 -207 109z" />
    <glyph glyph-name="T" unicode="T" horiz-adv-x="964" 
d="M950 1065h-291v-1065h-354v1065h-291v301h936v-301z" />
    <glyph glyph-name="U" unicode="U" horiz-adv-x="1476" 
d="M143 1366h355v-809q0 -30 1.5 -49.5t7.5 -51t21 -59.5t39 -51q31 -29 76.5 -47t91.5 -18q45 0 89.5 16t74.5 43q24 21 40 47.5t23.5 47.5t11.5 54.5t4.5 49t0.5 49.5v778h354v-784q0 -67 -3.5 -111t-17.5 -105t-46.5 -117t-85.5 -110q-167 -170 -451 -170
q-153 0 -269 45.5t-184 118.5q-80 87 -106.5 199t-26.5 250v784z" />
    <glyph glyph-name="V" unicode="V" horiz-adv-x="1431" 
d="M0 1366h387l328 -831l332 831h385l-582 -1366h-277z" />
    <glyph glyph-name="W" unicode="W" horiz-adv-x="2076" 
d="M0 1366h371l237 -883l289 883h283l268 -883l258 883h371l-437 -1366h-362l-248 791l-262 -791h-360z" />
    <glyph glyph-name="X" unicode="X" horiz-adv-x="1456" 
d="M0 0l535 729l-439 637h439l202 -354l211 354h436l-444 -637l516 -729h-430l-291 444l-307 -444h-428z" />
    <glyph glyph-name="Y" unicode="Y" horiz-adv-x="1310" 
d="M469 0v655l-494 711h424l258 -373l248 373h430l-510 -711v-655h-356z" />
    <glyph glyph-name="Z" unicode="Z" horiz-adv-x="1292" 
d="M1266 1366l-643 -1065h573v-301h-1169l647 1065h-537v301h1129z" />
    <glyph glyph-name="bracketleft" unicode="[" horiz-adv-x="690" 
d="M608 1303h-184v-1496h184v-192h-444v1878h444v-190z" />
    <glyph glyph-name="backslash" unicode="\" horiz-adv-x="1376" 
d="M1438 -385h-267l-1048 1878h268z" />
    <glyph glyph-name="bracketright" unicode="]" horiz-adv-x="690" 
d="M266 1303h-184v190h444v-1878h-444v192h184v1496z" />
    <glyph glyph-name="asciicircum" unicode="^" 
d="M512 1153l-225 -477h-277l328 690h348l330 -690h-279z" />
    <glyph glyph-name="underscore" unicode="_" 
d="M0 -365v271h1024v-271h-1024z" />
    <glyph glyph-name="grave" unicode="`" 
d="M512 1065l-315 278l209 150l258 -315z" />
    <glyph glyph-name="a" unicode="a" horiz-adv-x="1261" 
d="M821 827v88h328v-915h-328v100q-96 -131 -284 -131q-191 0 -330 146q-131 140 -131 336q0 225 141 366q60 60 146.5 94.5t183.5 34.5q166 0 274 -119zM621 668q-81 0 -144 -60q-65 -62 -65 -149q0 -90 63 -150q28 -26 68 -43.5t80 -17.5q84 0 147 63q61 61 61 148
q0 88 -63 149q-64 60 -147 60z" />
    <glyph glyph-name="b" unicode="b" horiz-adv-x="1261" 
d="M113 1493h327v-666q111 119 273 119q194 0 323 -123q67 -64 108.5 -157.5t41.5 -204.5q0 -107 -39 -202t-109 -163q-130 -127 -321 -127q-176 0 -277 131v-100h-327v1493zM641 248q84 0 145 61q64 64 64 144q0 91 -64 155q-60 60 -145 60q-90 0 -149 -62
q-26 -27 -44 -68.5t-18 -78.5q0 -42 19 -84.5t51 -71.5q62 -55 141 -55z" />
    <glyph glyph-name="c" unicode="c" horiz-adv-x="878" 
d="M805 295v-275q-104 -51 -227 -51q-214 0 -361 140q-66 64 -103.5 153.5t-37.5 188.5q0 101 39 193.5t108 160.5q146 139 369 139q111 0 213 -51v-275q-83 60 -170 60q-96 0 -160 -64q-63 -63 -63 -157q0 -91 57 -154q66 -70 168 -70q96 0 168 62z" />
    <glyph glyph-name="d" unicode="d" horiz-adv-x="1261" 
d="M1149 1493v-1493h-328v100q-101 -131 -276 -131q-192 0 -322 127q-70 68 -108.5 162.5t-38.5 202.5q0 111 41 204.5t108 157.5q129 123 324 123q161 0 272 -119v666h328zM621 248q79 0 141 55q32 29 50.5 71.5t18.5 84.5q0 37 -17.5 78.5t-43.5 68.5q-59 62 -149 62
q-86 0 -146 -60q-63 -63 -63 -155q0 -81 63 -144q61 -61 146 -61z" />
    <glyph glyph-name="e" unicode="e" horiz-adv-x="1159" 
d="M1083 432v-35h-682q0 -40 15 -82.5t43 -70.5q45 -45 135 -45q63 0 106 24q40 24 58 62h313q-31 -112 -110 -189q-131 -127 -373 -127q-239 0 -379 140q-135 135 -135 346q0 220 137 354q137 133 375 133q218 0 352 -125q145 -138 145 -385zM412 586h370q-13 58 -53 98
q-49 49 -135 49q-84 0 -133 -49q-41 -45 -49 -98z" />
    <glyph glyph-name="f" unicode="f" horiz-adv-x="706" 
d="M694 647h-229v-647h-328v647h-114v268h114v154q0 89 17 161.5t67 139.5q109 146 318 146q76 0 157 -31v-283q-52 31 -102 31q-61 0 -92 -35q-37 -41 -37 -154v-129h229v-268z" />
    <glyph glyph-name="g" unicode="g" horiz-adv-x="1255" 
d="M815 915h328v-858q0 -123 -24 -211t-101 -168q-145 -147 -404 -147q-269 0 -428 162q-85 88 -100 190h365q30 -94 153 -94q93 0 146 51q65 60 65 170v92q-68 -73 -135 -96.5t-139 -23.5q-213 0 -338 129q-61 62 -94 150t-33 183q0 105 36.5 199.5t98.5 159.5
q65 68 152 103.5t180 35.5q165 0 272 -121v94zM621 670q-84 0 -146 -62q-63 -66 -63 -147q0 -87 63 -150q59 -59 148 -59q86 0 147 61q29 29 45 70t16 78q0 36 -18 78t-47 71q-60 60 -145 60z" />
    <glyph glyph-name="h" unicode="h" horiz-adv-x="1198" 
d="M113 0v1493h327v-692q45 56 103 90q77 45 188 45q172 0 270 -98q55 -55 70.5 -113.5t15.5 -142.5v-582h-327v463q0 133 -41 178q-35 39 -105 39q-74 0 -118 -39q-56 -52 -56 -149v-492h-327z" />
    <glyph glyph-name="i" unicode="i" horiz-adv-x="550" 
d="M113 915h327v-915h-327v915zM92 1296q0 77 54 131t130 54t130.5 -54.5t54.5 -130.5t-54 -130t-131 -54q-76 0 -130 54t-54 130z" />
    <glyph glyph-name="j" unicode="j" horiz-adv-x="550" 
d="M113 915h327v-1384h-327v1384zM92 1296q0 77 54 131t130 54t130.5 -54.5t54.5 -130.5t-54 -130t-131 -54q-76 0 -130 54t-54 130z" />
    <glyph glyph-name="k" unicode="k" horiz-adv-x="1230" 
d="M113 1493h327v-907l310 329h444l-432 -421l467 -494h-455l-334 375v-375h-327v1493z" />
    <glyph glyph-name="l" unicode="l" horiz-adv-x="550" 
d="M113 1493h327v-1493h-327v1493z" />
    <glyph glyph-name="m" unicode="m" horiz-adv-x="1787" 
d="M113 0v915h327v-110q55 66 127.5 96.5t147.5 30.5q102 0 176 -41q81 -42 127 -131q47 83 125 127q80 45 190 45q168 0 254 -84t86 -252v-596h-327v453q0 151 -48 196q-35 31 -86 31q-56 0 -96 -37q-59 -57 -59 -174v-469h-328v453q0 75 -8.5 122t-34.5 74q-35 37 -98 37
q-57 0 -90 -33q-26 -25 -40 -65.5t-16 -67.5t-2 -67v-453h-327z" />
    <glyph glyph-name="n" unicode="n" horiz-adv-x="1198" 
d="M113 0v915h327v-114q102 135 291 135q172 0 270 -98q54 -54 70 -111.5t16 -144.5v-582h-327v463q0 42 -1 63t-10.5 57.5t-29.5 57.5q-37 39 -105 39q-74 0 -120 -43q-24 -23 -39 -63t-15 -82v-492h-327z" />
    <glyph glyph-name="o" unicode="o" horiz-adv-x="1251" 
d="M627 668q-39 0 -79.5 -16.5t-68.5 -43.5q-63 -60 -63 -149q0 -83 63 -146q61 -61 148 -61q84 0 145 61q64 61 64 146q0 38 -17 78.5t-47 70.5q-28 27 -67.5 43.5t-77.5 16.5zM1176 459q0 -199 -142 -338q-155 -152 -409 -152t-408 152q-141 138 -141 338q0 199 141 336
q155 151 408 151q250 0 409 -151q142 -138 142 -336z" />
    <glyph glyph-name="p" unicode="p" horiz-adv-x="1261" 
d="M440 88v-557h-327v1384h327v-100q104 131 281 131q193 0 326 -133q139 -139 139 -354q0 -218 -148 -363q-130 -127 -313 -127q-170 0 -285 119zM641 668q-85 0 -147 -62q-64 -64 -64 -151q0 -38 18.5 -78.5t45.5 -67.5q61 -61 147 -61q87 0 145 61q28 28 46 67t18 79
q0 87 -64 151q-59 62 -145 62z" />
    <glyph glyph-name="q" unicode="q" horiz-adv-x="1261" 
d="M821 -469v557q-115 -119 -284 -119q-184 0 -314 127q-147 147 -147 363q0 215 139 354q64 64 150.5 98.5t175.5 34.5q176 0 280 -131v100h328v-1384h-328zM621 668q-87 0 -146 -62q-63 -63 -63 -151q0 -40 17.5 -79t45.5 -67q58 -61 146 -61q86 0 147 61q27 27 45 67
t18 79q0 88 -63 151q-62 62 -147 62z" />
    <glyph glyph-name="r" unicode="r" horiz-adv-x="837" 
d="M113 0v915h327v-149q46 85 129 127q67 37 170 37q3 0 10 -0.5t22.5 -1.5t33.5 -2v-310q-66 33 -141 33q-96 0 -150 -49q-74 -67 -74 -209v-391h-327z" />
    <glyph glyph-name="s" unicode="s" horiz-adv-x="909" 
d="M55 76l117 227q61 -45 131 -67q67 -23 127 -23q56 0 84 25q16 16 16 43t-16 41q-17 15 -86 32l-86 21q-108 24 -160 80q-59 62 -59 157q0 65 23.5 124t62.5 100q52 53 138.5 81.5t189.5 28.5q156 0 292 -59l-110 -209q-101 45 -172 45q-46 0 -76 -18q-29 -16 -29 -46
q0 -35 39 -51q17 -6 51.5 -13t57.5 -13l59 -17q34 -9 75 -30.5t60 -40.5q33 -32 51.5 -81.5t18.5 -101.5q0 -139 -92 -227q-115 -115 -338 -115q-193 0 -369 107z" />
    <glyph glyph-name="t" unicode="t" horiz-adv-x="671" 
d="M662 647h-187v-647h-328v647h-104v268h104v302h328v-302h187v-268z" />
    <glyph glyph-name="u" unicode="u" horiz-adv-x="1208" 
d="M113 915h327v-512q0 -89 49 -133q39 -34 115 -34q77 0 117 38q47 47 47 129v512h328v-571q0 -74 -16.5 -131.5t-71.5 -114.5q-76 -78 -175.5 -103.5t-220.5 -25.5q-60 0 -108.5 4.5t-106.5 17t-108.5 40t-89.5 69.5q-86 91 -86 244v571z" />
    <glyph glyph-name="v" unicode="v" horiz-adv-x="1173" 
d="M0 915h367l219 -469l223 469h365l-478 -915h-223z" />
    <glyph glyph-name="w" unicode="w" horiz-adv-x="1841" 
d="M0 915h367l217 -483l231 483h201l231 -497l230 497h364l-479 -915h-221l-230 504l-219 -504h-221z" />
    <glyph glyph-name="x" unicode="x" horiz-adv-x="1335" 
d="M0 0l457 498l-371 417h426l158 -188l161 188h424l-378 -417l458 -498h-434l-233 272l-234 -272h-434z" />
    <glyph glyph-name="y" unicode="y" horiz-adv-x="1236" 
d="M135 -469l307 594l-442 790h381l244 -469l237 469h375l-735 -1384h-367z" />
    <glyph glyph-name="z" unicode="z" horiz-adv-x="1058" 
d="M1018 915l-428 -647h383v-268h-932l432 647h-369v268h914z" />
    <glyph glyph-name="braceleft" unicode="{" 
d="M623 1137v-322q0 -107 -25 -156q-32 -62 -98 -102q66 -40 98 -102q25 -49 25 -156v-328q0 -34 4 -52t19.5 -34.5t48.5 -23t89 -6.5h41v-234h-39q-24 0 -73 -3t-74 -3q-58 0 -103.5 11.5t-74.5 28t-50 44.5t-31.5 51t-16 57.5t-6.5 54.5t-1 50v403q0 123 -112 140v225
q112 15 112 139v377q0 30 1 50t6.5 54.5t16 57.5t31.5 51t50 44.5t74.5 28t103.5 11.5q25 0 74 -3t73 -3h39v-234h-41q-56 0 -89 -6.5t-48.5 -23t-19.5 -34.5t-4 -52z" />
    <glyph glyph-name="bar" unicode="|" 
d="M379 -512v2048h266v-2048h-266z" />
    <glyph glyph-name="braceright" unicode="}" 
d="M446 815v322q0 34 -4 52t-19.5 34.5t-48.5 23t-89 6.5h-41v234h39q25 0 74 3t73 3q57 0 102.5 -11.5t74.5 -28.5t50 -44t31.5 -51t16.5 -57.5t7 -54t1 -50.5v-377q0 -23 2.5 -39t12 -40t34.5 -39.5t63 -20.5v-225q-31 -5 -53.5 -17.5t-33.5 -26t-17 -33.5t-7 -32.5
t-1 -30.5v-403q0 -30 -1 -50.5t-7 -54t-16.5 -57.5t-31.5 -51t-50 -44t-74.5 -28.5t-102.5 -11.5q-24 0 -73 3t-74 3h-39v234h41q56 0 89 6.5t48.5 23t19.5 34.5t4 52v328q0 107 25 156q32 62 98 102q-66 40 -98 102q-25 49 -25 156z" />
    <glyph glyph-name="asciitilde" unicode="~" 
d="M526 461l-71 24q-107 39 -150 39q-50 0 -88 -35q-33 -29 -59 -90l-146 97l17 34q4 8 16 34t19.5 40t19.5 35.5t25 38.5t28 31q71 71 180 71q68 0 189 -43l74 -26q83 -31 131 -31q54 0 94 31q35 31 55 73l152 -88l-11 -22q-44 -100 -108 -168q-81 -84 -195 -84
q-25 0 -52 4.5t-42.5 9t-43 14t-34.5 11.5z" />
    <glyph glyph-name="uni00A0" unicode="&#xa0;" horiz-adv-x="477" 
 />
    <glyph glyph-name="exclamdown" unicode="&#xa1;" horiz-adv-x="698" 
d="M180 -471v901h340v-901h-340zM350 508q-86 0 -149 63q-64 64 -64 150q0 85 64 149t149 64q86 0 152 -66q59 -59 59 -147q0 -89 -61 -150q-63 -63 -150 -63z" />
    <glyph glyph-name="cent" unicode="&#xa2;" horiz-adv-x="1228" 
d="M680 1352h192v-187q55 -3 107 -30v-295q-69 69 -164 69q-92 0 -153 -61q-68 -68 -68 -164q0 -97 68 -162q63 -57 153 -57q94 0 164 70v-295q-57 -26 -107 -29v-191h-192v179q-174 24 -293 143q-64 66 -100.5 155.5t-36.5 188.5q0 103 39.5 196t105.5 158q112 112 285 138
v174z" />
    <glyph glyph-name="sterling" unicode="&#xa3;" horiz-adv-x="1228" 
d="M319 516h-256v197h148q-49 114 -49 217q0 87 33.5 172t101.5 151q143 138 401 138q244 0 369 -127q123 -123 123 -336q0 -37 -2 -51h-357q3 24 3 49q0 93 -50 143q-46 43 -112 43q-77 0 -121 -51q-49 -55 -49 -141q0 -91 51 -207h313v-197h-256q8 -56 8 -102
q0 -55 -16 -113l96 -29q136 -41 193 -41q43 0 66.5 25.5t23.5 65.5h221q-2 -80 -32.5 -155t-82.5 -122q-79 -74 -208 -74q-88 0 -217 41l-78 25q-102 31 -183 31q-98 0 -125 -68h-235q12 64 42.5 126.5t68.5 102.5q73 77 180 93q12 38 12 86q0 53 -25 108z" />
    <glyph glyph-name="currency" unicode="&#xa4;" horiz-adv-x="1366" 
d="M184 137l-143 144l211 211q-90 125 -90 282q0 147 92 281l-215 213l145 145l213 -213q133 90 287 90q148 0 281 -88l211 209l143 -143l-209 -209q94 -129 94 -287q0 -151 -90 -278l211 -211l-141 -146l-211 211q-130 -92 -291 -92q-158 0 -287 90zM961 772q0 116 -80 199
q-79 82 -197 82q-117 0 -197 -80q-81 -81 -81 -201q0 -116 81 -197t197 -81t195 79q82 82 82 199z" />
    <glyph glyph-name="yen" unicode="&#xa5;" horiz-adv-x="1228" 
d="M426 674h-334v215h205l-289 477h404l204 -393l197 393h410l-301 -477h215v-215h-351l-12 -19v-108h363v-213h-363v-334h-336v334h-346v213h346v108z" />
    <glyph glyph-name="brokenbar" unicode="&#xa6;" 
d="M379 694v842h266v-842h-266zM379 -512v842h266v-842h-266z" />
    <glyph glyph-name="section" unicode="&#xa7;" horiz-adv-x="1228" 
d="M1028 1110h-287q0 83 -45 125q-29 27 -78 27q-50 0 -81 -31q-33 -33 -33 -78q0 -59 53 -98q45 -35 152 -78l82 -35q121 -52 186 -121q90 -97 90 -227q0 -46 -14 -103.5t-33 -93.5q-51 -94 -162 -145q76 -44 115 -109q41 -67 41 -166q0 -142 -92 -241q-112 -121 -312 -121
q-187 0 -295 106q-112 112 -112 295h286v-14q0 -81 46 -121q32 -28 81 -28q61 0 93 32q36 36 36 88q0 73 -49 117q-23 20 -59.5 35.5t-128.5 46.5q-59 20 -86 30.5t-70 35.5t-76 59q-100 103 -100 260q0 124 64 211q53 71 135 115q-72 47 -105 98q-43 63 -43 162
q0 160 90 250q45 45 120 72.5t171 27.5q80 0 159.5 -21t135.5 -65q125 -99 125 -297zM768 563q0 59 -37 101q-42 49 -113 49q-59 0 -102 -43q-45 -45 -45 -107q0 -23 12 -52.5t31 -49.5q18 -19 46.5 -32t57.5 -13q65 0 113 51q37 42 37 96z" />
    <glyph glyph-name="dieresis" unicode="&#xa8;" 
d="M743 1071q-73 0 -125 55q-51 57 -51 123q0 63 54 125q53 53 122 53q72 0 123 -51q56 -56 56 -127q0 -68 -54 -125q-53 -53 -125 -53zM279 1071q-73 0 -125 55q-52 58 -52 123q0 63 54 125q53 53 123 53q71 0 122 -51q56 -56 56 -127q0 -68 -54 -125q-53 -53 -124 -53z
" />
    <glyph glyph-name="copyright" unicode="&#xa9;" horiz-adv-x="1556" 
d="M1026 1065v-293q-33 52 -87.5 81.5t-113.5 29.5q-81 0 -139 -52q-63 -60 -63 -153q0 -84 53 -141q58 -58 149 -58q107 0 201 101v-285q-77 -43 -192 -43q-222 0 -353 135q-116 119 -116 291q0 84 32 161t84 134q127 137 334 137q97 0 211 -45zM1489 684
q0 -136 -55 -271.5t-158 -238.5q-93 -93 -223 -149t-275 -56t-274.5 56t-222.5 149q-103 103 -158 238.5t-55 271.5q0 134 55 269.5t158 238.5q93 93 222.5 149t274.5 56t275 -56t223 -149q103 -103 158 -238.5t55 -269.5zM778 1268q-104 0 -204 -39.5t-177 -112.5
q-84 -79 -135 -192.5t-51 -241.5t51 -241.5t135 -192.5q77 -73 177 -112.5t204 -39.5t204 39.5t177 112.5q84 79 135.5 192.5t51.5 241.5t-51.5 241.5t-135.5 192.5q-77 73 -177 112.5t-204 39.5z" />
    <glyph glyph-name="ordfeminine" unicode="&#xaa;" horiz-adv-x="737" 
d="M485 1294v54h193v-543h-193v61q-55 -78 -157 -78q-123 0 -199 76q-86 83 -86 213q0 60 24.5 118t61.5 95q76 76 193 76q102 0 163 -72zM57 547v155h621v-155h-621zM367 1200q-48 0 -82 -31q-41 -36 -41 -92q0 -51 41 -92q33 -33 82 -33t82 33q40 38 40 92q0 56 -43 92
q-36 31 -79 31z" />
    <glyph glyph-name="guillemotleft" unicode="&#xab;" horiz-adv-x="1087" 
d="M999 786l-227 -319l234 -315l-187 -132l-311 447l311 444zM549 786l-227 -319l233 -315l-186 -132l-312 447l312 444z" />
    <glyph glyph-name="logicalnot" unicode="&#xac;" 
d="M956 0h-266v307h-622v240h888v-547z" />
    <glyph glyph-name="uni00AD" unicode="&#xad;" horiz-adv-x="722" 
d="M102 414v272h519v-272h-519z" />
    <glyph glyph-name="registered" unicode="&#xae;" horiz-adv-x="1579" 
d="M68 684q0 194 97.5 358.5t264 259.5t361.5 95q147 0 280.5 -56.5t229.5 -151.5t153 -227t57 -278q-1 -145 -59 -277t-154 -228t-229 -153t-278 -57q-146 0 -280 57t-231 153.5t-154.5 228.5t-57.5 276zM1368 684q0 161 -75.5 295t-208.5 211.5t-293 77.5
q-159 0 -292 -77.5t-210.5 -212t-77.5 -294.5t77.5 -295.5t211 -214t291.5 -78.5q157 0 290 78.5t210 214t77 295.5zM926 623l-8 -5l243 -311h-305l-149 230v-230h-240v776h324q125 0 199.5 -67.5t74.5 -181.5q0 -74 -38 -132.5t-101 -78.5zM707 903v-158h14q108 0 108 80
q0 37 -28 57.5t-80 20.5h-14z" />
    <glyph glyph-name="macron" unicode="&#xaf;" 
d="M106 1104v201h812v-201h-812z" />
    <glyph glyph-name="degree" unicode="&#xb0;" 
d="M516 743q-134 0 -227 93q-92 92 -92 221q0 127 92 217q96 92 221 92q64 0 123 -24.5t102 -65.5q92 -89 92 -219q0 -129 -92 -221q-93 -93 -219 -93zM365 1055q0 -61 41.5 -102.5t105.5 -41.5t105.5 41.5t41.5 102.5t-41.5 102t-105.5 41t-105.5 -41t-41.5 -102z" />
    <glyph glyph-name="plusminus" unicode="&#xb1;" 
d="M68 731v246h311v313h266v-313h311v-246h-311v-315h-266v315h-311zM68 102v246h888v-246h-888z" />
    <glyph glyph-name="twosuperior" unicode="&#xb2;" horiz-adv-x="765" 
d="M698 735v-174h-630l198 219q10 11 40.5 45t42.5 47.5t31 37.5t32 44q59 85 59 154q0 52 -27 82q-20 22 -57 22q-33 0 -55 -22q-35 -35 -35 -98h-217q3 63 28.5 123t65.5 100q82 82 219 82q141 0 221 -82q74 -76 74 -203q0 -88 -37.5 -156t-124.5 -145l-86 -76h258z" />
    <glyph glyph-name="threesuperior" unicode="&#xb3;" horiz-adv-x="765" 
d="M68 840h208q3 -46 33 -76q33 -33 80 -33q50 0 78 31q29 29 29 78q0 42 -29 71q-33 29 -76 29q-5 0 -47 -6v139q65 -4 92 21q27 24 27 65q0 35 -23 58q-19 22 -57 22q-39 0 -61 -27q-23 -26 -23 -63h-190q8 111 79 182q76 76 209 76q125 0 193 -70q61 -61 61 -157
q0 -66 -26 -109q-20 -33 -56 -55q49 -15 82 -58q47 -63 47 -139q0 -111 -71 -182q-82 -82 -230 -82q-144 0 -231 82q-86 81 -98 203z" />
    <glyph glyph-name="acute" unicode="&#xb4;" 
d="M621 1493l206 -150l-315 -278l-152 113z" />
    <glyph glyph-name="mu" unicode="&#xb5;" horiz-adv-x="1196" 
d="M440 -471h-327v1386h327v-409q0 -173 62 -230q34 -34 96 -34q59 0 98 39q60 60 60 233v401h327v-915h-327v115q-18 -54 -58 -90q-44 -41 -100 -41q-62 0 -106 41q-34 32 -52 79v-575z" />
    <glyph glyph-name="mu" unicode="&#x3bc;" horiz-adv-x="1196" 
d="M440 -471h-327v1386h327v-409q0 -173 62 -230q34 -34 96 -34q59 0 98 39q60 60 60 233v401h327v-915h-327v115q-18 -54 -58 -90q-44 -41 -100 -41q-62 0 -106 41q-34 32 -52 79v-575z" />
    <glyph glyph-name="paragraph" unicode="&#xb6;" horiz-adv-x="1366" 
d="M674 -195h-234v846h-20q-83 0 -157 30t-122 81q-86 91 -86 237q0 165 101 261q114 106 372 106h689v-217h-148v-1344h-233v1344h-162v-1344z" />
    <glyph glyph-name="periodcentered" unicode="&#xb7;" horiz-adv-x="507" 
d="M254 469q-101 0 -174 70q-80 77 -80 184q0 49 20.5 99t59.5 87q73 70 174 70q99 0 170 -68q84 -78 84 -188q0 -104 -74 -178q-76 -76 -180 -76z" />
    <glyph glyph-name="cedilla" unicode="&#xb8;" 
d="M590 -94l217 -90l-254 -299l-172 82z" />
    <glyph glyph-name="onesuperior" unicode="&#xb9;" horiz-adv-x="452" 
d="M180 547v647h-112v172h317v-819h-205z" />
    <glyph glyph-name="ordmasculine" unicode="&#xba;" horiz-adv-x="727" 
d="M365 788q-153 0 -242 89q-80 80 -80 200q0 119 80 199q90 90 242 90q149 0 235 -86q40 -38 62 -91.5t22 -109.5q0 -120 -82 -202q-89 -89 -237 -89zM53 547v155h621v-155h-621zM365 1200q-48 0 -86 -33q-37 -32 -37 -90q0 -55 37 -88q35 -35 86 -35q41 0 77 29
q43 37 43 94q0 59 -36 90q-38 33 -84 33z" />
    <glyph glyph-name="guillemotright" unicode="&#xbb;" horiz-adv-x="1087" 
d="M78 152l233 315l-227 319l180 125l311 -444l-311 -447zM528 152l234 315l-227 319l180 125l311 -444l-311 -447z" />
    <glyph glyph-name="onequarter" unicode="&#xbc;" horiz-adv-x="1587" 
d="M246 0l790 1366h178l-792 -1366h-176zM180 547v647h-112v172h317v-819h-205zM1440 819v-506h96v-157h-96v-156h-193v156h-381v129l305 534h269zM1075 313h172v316z" />
    <glyph glyph-name="onehalf" unicode="&#xbd;" horiz-adv-x="1609" 
d="M213 0l791 1366h178l-793 -1366h-176zM180 547v647h-112v172h317v-819h-205zM1542 174v-174h-631l199 219q9 10 33 36.5t34 38t27 31.5t28.5 36t22.5 32q60 87 60 154q0 52 -27 82q-20 22 -57 22q-33 0 -55 -22q-35 -35 -35 -99h-217q3 63 28.5 123.5t65.5 100.5
q82 82 219 82q141 0 221 -82q74 -76 74 -203q0 -88 -37.5 -156t-124.5 -145l-86 -76h258z" />
    <glyph glyph-name="threequarters" unicode="&#xbe;" horiz-adv-x="1820" 
d="M483 0l791 1366h178l-793 -1366h-176zM68 840h208q3 -46 33 -76q33 -33 80 -33q50 0 78 31q29 33 29 80q0 40 -29 69t-76 29q-26 0 -47 -6v139q68 0 92 21q27 24 27 65q0 35 -23 58q-19 22 -57 22q-39 0 -61 -27q-23 -26 -23 -63h-190q8 111 79 182q76 76 209 76
q125 0 193 -70q61 -61 61 -157q0 -66 -26 -109q-20 -33 -56 -55q48 -14 82 -58q47 -59 47 -143q0 -107 -71 -178q-82 -82 -230 -82q-144 0 -231 82q-86 81 -98 203zM1278 313h172v316zM1642 819v-506h97v-157h-97v-156h-192v156h-381v129l305 534h268z" />
    <glyph glyph-name="questiondown" unicode="&#xbf;" horiz-adv-x="1120" 
d="M410 436h333v-352q-27 10 -71 10q-41 0 -68 -3t-61.5 -17.5t-61.5 -42.5q-47 -47 -47 -113q0 -62 37 -94q33 -33 90 -33q62 0 94 37q37 40 37 100h361q-7 -102 -48.5 -184t-101.5 -133q-124 -107 -340 -107q-230 0 -360 125q-121 117 -121 293q0 142 98 254
q90 100 230 131v129zM567 934q86 0 150 -64q63 -63 63 -149q0 -87 -63 -150t-150 -63q-86 0 -151 65q-60 60 -60 148q0 87 62 149q64 64 149 64z" />
    <glyph glyph-name="Agrave" unicode="&#xc0;" horiz-adv-x="1454" 
d="M1061 0l-84 229h-496l-92 -229h-375l525 1366h387l514 -1366h-379zM580 500h303l-154 442zM727 1475l-315 278l209 150l258 -316z" />
    <glyph glyph-name="Aacute" unicode="&#xc1;" horiz-adv-x="1454" 
d="M1061 0l-84 229h-496l-92 -229h-375l525 1366h387l514 -1366h-379zM580 500h303l-154 442zM836 1903l206 -150l-315 -278l-152 112z" />
    <glyph glyph-name="Acircumflex" unicode="&#xc2;" horiz-adv-x="1454" 
d="M1061 0l-84 229h-496l-92 -229h-375l525 1366h387l514 -1366h-379zM580 500h303l-154 442zM463 1475l-139 157l401 301l405 -301l-145 -157l-260 200z" />
    <glyph glyph-name="Atilde" unicode="&#xc3;" horiz-adv-x="1454" 
d="M1061 0l-84 229h-496l-92 -229h-375l525 1366h387l514 -1366h-379zM580 500h303l-154 442zM934 1776l158 -95q-14 -36 -40 -76.5t-51 -64.5q-59 -59 -147 -59q-54 0 -119 30l-61 31q-49 25 -74 25t-46.5 -21.5t-31.5 -64.5l-160 94q29 89 82 139q62 58 144 58
q53 0 123 -29l59 -27q68 -30 88 -30q50 0 76 90z" />
    <glyph glyph-name="Adieresis" unicode="&#xc4;" horiz-adv-x="1454" 
d="M1061 0l-84 229h-496l-92 -229h-375l525 1366h387l514 -1366h-379zM580 500h303l-154 442zM958 1481q-72 0 -124 55q-52 58 -52 123q0 63 54 125q53 53 122 53q72 0 123 -51q56 -56 56 -127q0 -68 -54 -125q-53 -53 -125 -53zM494 1481q-73 0 -125 55q-52 58 -52 123
q0 63 54 125q53 53 123 53q71 0 122 -51q56 -56 56 -127q0 -68 -54 -125q-53 -53 -124 -53z" />
    <glyph glyph-name="Aring" unicode="&#xc5;" horiz-adv-x="1454" 
d="M1061 0l-84 229h-496l-92 -229h-375l525 1366h387l514 -1366h-379zM580 500h303l-154 442zM1008 1692q0 -82 -54 -136q-75 -75 -227 -75t-227 75q-54 54 -54 136q0 83 54 137q76 76 227 76t227 -76q54 -54 54 -137zM727 1776q-57 0 -88 -31q-21 -21 -21 -51q0 -31 21 -52
q30 -30 88 -30t88 30q21 21 21 52q0 30 -21 51q-31 31 -88 31z" />
    <glyph glyph-name="AE" unicode="&#xc6;" horiz-adv-x="1892" 
d="M1055 0l-88 240h-494l-86 -240h-373l527 1366h835l109 -301h-449l84 -227h449l112 -301h-450l90 -236h446l111 -301h-823zM571 510h299l-145 403z" />
    <glyph glyph-name="Ccedilla" unicode="&#xc7;" horiz-adv-x="1206" 
d="M1124 457v-420q-105 -38 -173 -53t-134 -15q-167 0 -301 56.5t-227 148.5q-99 99 -153 231t-54 267q0 143 56 275t151 229t229 155t287 58q145 0 319 -70v-424q-122 149 -309 149q-145 0 -246 -90q-118 -110 -118 -280q0 -73 28.5 -144.5t81.5 -121.5q46 -43 113.5 -69
t140.5 -26q178 0 309 144zM741 -94l230 -90l-238 -299l-188 82z" />
    <glyph glyph-name="Egrave" unicode="&#xc8;" horiz-adv-x="1001" 
d="M920 1366v-301h-422v-227h399v-301h-399v-236h422v-301h-777v1366h777zM573 1475l-315 278l209 150l258 -316z" />
    <glyph glyph-name="Eacute" unicode="&#xc9;" horiz-adv-x="1001" 
d="M920 1366v-301h-422v-227h399v-301h-399v-236h422v-301h-777v1366h777zM590 1903l207 -150l-316 -278l-151 112z" />
    <glyph glyph-name="Ecircumflex" unicode="&#xca;" horiz-adv-x="1001" 
d="M920 1366v-301h-422v-227h399v-301h-399v-236h422v-301h-777v1366h777zM268 1475l-139 157l401 301l406 -301l-145 -157l-261 200z" />
    <glyph glyph-name="Edieresis" unicode="&#xcb;" horiz-adv-x="1001" 
d="M920 1366v-301h-422v-227h399v-301h-399v-236h422v-301h-777v1366h777zM764 1481q-73 0 -125 55q-51 57 -51 123q0 64 53 125q53 53 123 53q72 0 123 -51q55 -55 55 -127q0 -69 -53 -125q-53 -53 -125 -53zM299 1481q-73 0 -125 55q-51 57 -51 123q0 64 53 125
q53 53 123 53q72 0 123 -51q55 -55 55 -127q0 -69 -53 -125q-53 -53 -125 -53z" />
    <glyph glyph-name="Igrave" unicode="&#xcc;" horiz-adv-x="641" 
d="M143 1366h355v-1366h-355v1366zM348 1475l-315 278l209 150l258 -316z" />
    <glyph glyph-name="Iacute" unicode="&#xcd;" horiz-adv-x="641" 
d="M143 1366h355v-1366h-355v1366zM416 1903l207 -150l-316 -278l-151 112z" />
    <glyph glyph-name="Icircumflex" unicode="&#xce;" horiz-adv-x="641" 
d="M143 1366h355v-1366h-355v1366zM57 1475l-139 157l401 301l406 -301l-145 -157l-261 200z" />
    <glyph glyph-name="Idieresis" unicode="&#xcf;" horiz-adv-x="641" 
d="M143 1366h355v-1366h-355v1366zM553 1481q-73 0 -125 55q-51 57 -51 123q0 64 53 125q53 53 123 53q72 0 123 -51q55 -55 55 -127q0 -69 -53 -125q-53 -53 -125 -53zM88 1481q-73 0 -125 55q-51 57 -51 123q0 64 53 125q53 53 123 53q72 0 123 -51q55 -55 55 -127
q0 -69 -53 -125q-53 -53 -125 -53z" />
    <glyph glyph-name="Eth" unicode="&#xd0;" horiz-adv-x="1509" 
d="M725 0h-496v606h-188v246h188v514h465q348 0 543 -188q190 -183 190 -498q0 -295 -178 -473q-90 -90 -225 -148.5t-299 -58.5zM584 1065v-213h241v-246h-241v-305h71q199 0 299 98q105 100 105 281q0 95 -28 173.5t-79 125.5q-56 52 -126.5 69t-155.5 17h-86z" />
    <glyph glyph-name="Ntilde" unicode="&#xd1;" horiz-adv-x="1648" 
d="M498 0h-355v1366h355l653 -836v836h354v-1366h-354l-653 836v-836zM1030 1776l158 -95q-36 -90 -90 -141q-59 -59 -148 -59q-54 0 -119 30l-61 31q-49 25 -74 25t-46.5 -21.5t-31.5 -64.5l-159 94q29 89 82 139q62 58 143 58q53 0 123 -29l59 -27q68 -30 88 -30
q50 0 76 90z" />
    <glyph glyph-name="Ograve" unicode="&#xd2;" horiz-adv-x="1671" 
d="M1589 682q0 -140 -54.5 -274.5t-160.5 -235.5q-103 -99 -243.5 -151t-294.5 -52t-295 52.5t-244 150.5q-106 101 -160.5 235.5t-54.5 274.5q0 141 54.5 276.5t160.5 235.5q103 98 244 150.5t295 52.5t294.5 -52t243.5 -151q106 -100 160.5 -235.5t54.5 -276.5zM836 1053
q-77 0 -150 -27.5t-127 -81.5q-108 -105 -108 -268q0 -150 108 -254q114 -109 277 -109q167 0 274 107q50 50 80.5 118.5t30.5 143.5q0 76 -30.5 145t-80.5 117q-56 53 -128.5 81t-145.5 28zM838 1475l-316 278l209 150l258 -316z" />
    <glyph glyph-name="Oacute" unicode="&#xd3;" horiz-adv-x="1671" 
d="M1589 682q0 -140 -54.5 -274.5t-160.5 -235.5q-103 -99 -243.5 -151t-294.5 -52t-295 52.5t-244 150.5q-106 101 -160.5 235.5t-54.5 274.5q0 141 54.5 276.5t160.5 235.5q103 98 244 150.5t295 52.5t294.5 -52t243.5 -151q106 -100 160.5 -235.5t54.5 -276.5zM836 1053
q-77 0 -150 -27.5t-127 -81.5q-108 -105 -108 -268q0 -150 108 -254q114 -109 277 -109q167 0 274 107q50 50 80.5 118.5t30.5 143.5q0 76 -30.5 145t-80.5 117q-56 53 -128.5 81t-145.5 28zM946 1903l207 -150l-315 -278l-152 112z" />
    <glyph glyph-name="Ocircumflex" unicode="&#xd4;" horiz-adv-x="1671" 
d="M1589 682q0 -140 -54.5 -274.5t-160.5 -235.5q-103 -99 -243.5 -151t-294.5 -52t-295 52.5t-244 150.5q-106 101 -160.5 235.5t-54.5 274.5q0 141 54.5 276.5t160.5 235.5q103 98 244 150.5t295 52.5t294.5 -52t243.5 -151q106 -100 160.5 -235.5t54.5 -276.5zM836 1053
q-77 0 -150 -27.5t-127 -81.5q-108 -105 -108 -268q0 -150 108 -254q114 -109 277 -109q167 0 274 107q50 50 80.5 118.5t30.5 143.5q0 76 -30.5 145t-80.5 117q-56 53 -128.5 81t-145.5 28zM573 1475l-139 157l402 301l405 -301l-145 -157l-260 200z" />
    <glyph glyph-name="Otilde" unicode="&#xd5;" horiz-adv-x="1671" 
d="M1589 682q0 -140 -54.5 -274.5t-160.5 -235.5q-103 -99 -243.5 -151t-294.5 -52t-295 52.5t-244 150.5q-106 101 -160.5 235.5t-54.5 274.5q0 141 54.5 276.5t160.5 235.5q103 98 244 150.5t295 52.5t294.5 -52t243.5 -151q106 -100 160.5 -235.5t54.5 -276.5zM836 1053
q-77 0 -150 -27.5t-127 -81.5q-108 -105 -108 -268q0 -150 108 -254q114 -109 277 -109q167 0 274 107q50 50 80.5 118.5t30.5 143.5q0 76 -30.5 145t-80.5 117q-56 53 -128.5 81t-145.5 28zM1044 1776l158 -95q-36 -90 -90 -141q-59 -59 -147 -59q-54 0 -119 30l-62 31
q-49 25 -73 25q-25 0 -46.5 -21.5t-31.5 -64.5l-160 94q29 89 82 139q62 58 143 58q53 0 123 -29l60 -27q68 -30 88 -30q49 0 75 90z" />
    <glyph glyph-name="Odieresis" unicode="&#xd6;" horiz-adv-x="1671" 
d="M1589 682q0 -140 -54.5 -274.5t-160.5 -235.5q-103 -99 -243.5 -151t-294.5 -52t-295 52.5t-244 150.5q-106 101 -160.5 235.5t-54.5 274.5q0 141 54.5 276.5t160.5 235.5q103 98 244 150.5t295 52.5t294.5 -52t243.5 -151q106 -100 160.5 -235.5t54.5 -276.5zM836 1053
q-77 0 -150 -27.5t-127 -81.5q-108 -105 -108 -268q0 -150 108 -254q114 -109 277 -109q167 0 274 107q50 50 80.5 118.5t30.5 143.5q0 76 -30.5 145t-80.5 117q-56 53 -128.5 81t-145.5 28zM1069 1481q-73 0 -125 55q-51 57 -51 123q0 64 53 125q53 53 123 53q72 0 123 -51
q55 -55 55 -127q0 -69 -53 -125q-53 -53 -125 -53zM604 1481q-73 0 -125 55q-51 57 -51 123q0 64 53 125q53 53 123 53q72 0 123 -51q55 -55 55 -127q0 -69 -53 -125q-53 -53 -125 -53z" />
    <glyph glyph-name="multiply" unicode="&#xd7;" 
d="M252 258l-172 174l250 250l-252 252l188 188l252 -252l250 252l174 -174l-250 -252l252 -252l-188 -188l-252 252z" />
    <glyph glyph-name="Oslash" unicode="&#xd8;" horiz-adv-x="1695" 
d="M1634 1290l-178 -176q146 -194 146 -430q0 -141 -55.5 -275.5t-160.5 -236.5q-209 -203 -538 -203q-231 0 -424 115l-180 -180l-183 172l179 176q-146 183 -146 428q0 158 59 290t156 224q96 91 233 147t306 56q234 0 424 -115l180 180zM506 508l506 504q-71 41 -164 41
q-168 0 -277 -109q-108 -108 -108 -268q0 -93 43 -168zM1188 856l-502 -502q72 -41 164 -41q165 0 272 107q111 111 111 262q0 101 -45 174z" />
    <glyph glyph-name="Ugrave" unicode="&#xd9;" horiz-adv-x="1476" 
d="M143 1366h355v-809q0 -30 1.5 -49.5t7.5 -51t21 -59.5t39 -51q31 -29 76.5 -47t91.5 -18q45 0 89.5 16t74.5 43q24 21 40 47.5t23.5 47.5t11.5 54.5t4.5 49t0.5 49.5v778h354v-784q0 -67 -3.5 -111t-17.5 -105t-46.5 -117t-85.5 -110q-167 -170 -451 -170
q-153 0 -269 45.5t-184 118.5q-80 87 -106.5 199t-26.5 250v784zM737 1475l-315 278l209 150l258 -316z" />
    <glyph glyph-name="Uacute" unicode="&#xda;" horiz-adv-x="1476" 
d="M143 1366h355v-809q0 -30 1.5 -49.5t7.5 -51t21 -59.5t39 -51q31 -29 76.5 -47t91.5 -18q45 0 89.5 16t74.5 43q24 21 40 47.5t23.5 47.5t11.5 54.5t4.5 49t0.5 49.5v778h354v-784q0 -67 -3.5 -111t-17.5 -105t-46.5 -117t-85.5 -110q-167 -170 -451 -170
q-153 0 -269 45.5t-184 118.5q-80 87 -106.5 199t-26.5 250v784zM846 1903l207 -150l-316 -278l-151 112z" />
    <glyph glyph-name="Ucircumflex" unicode="&#xdb;" horiz-adv-x="1476" 
d="M143 1366h355v-809q0 -30 1.5 -49.5t7.5 -51t21 -59.5t39 -51q31 -29 76.5 -47t91.5 -18q45 0 89.5 16t74.5 43q24 21 40 47.5t23.5 47.5t11.5 54.5t4.5 49t0.5 49.5v778h354v-784q0 -67 -3.5 -111t-17.5 -105t-46.5 -117t-85.5 -110q-167 -170 -451 -170
q-153 0 -269 45.5t-184 118.5q-80 87 -106.5 199t-26.5 250v784zM473 1475l-139 157l401 301l406 -301l-146 -157l-260 200z" />
    <glyph glyph-name="Udieresis" unicode="&#xdc;" horiz-adv-x="1476" 
d="M143 1366h355v-809q0 -30 1.5 -49.5t7.5 -51t21 -59.5t39 -51q31 -29 76.5 -47t91.5 -18q45 0 89.5 16t74.5 43q24 21 40 47.5t23.5 47.5t11.5 54.5t4.5 49t0.5 49.5v778h354v-784q0 -67 -3.5 -111t-17.5 -105t-46.5 -117t-85.5 -110q-167 -170 -451 -170
q-153 0 -269 45.5t-184 118.5q-80 87 -106.5 199t-26.5 250v784zM969 1481q-73 0 -125 55q-51 57 -51 123q0 64 53 125q53 53 123 53q72 0 123 -51q55 -55 55 -127q0 -69 -53 -125q-53 -53 -125 -53zM504 1481q-73 0 -125 55q-51 57 -51 123q0 64 53 125q53 53 123 53
q72 0 123 -51q55 -55 55 -127q0 -69 -53 -125q-53 -53 -125 -53z" />
    <glyph glyph-name="Yacute" unicode="&#xdd;" horiz-adv-x="1310" 
d="M469 0v655l-494 711h424l258 -373l248 373h430l-510 -711v-655h-356zM764 1903l207 -150l-316 -278l-151 112z" />
    <glyph glyph-name="Thorn" unicode="&#xde;" horiz-adv-x="1226" 
d="M721 268h-223v-268h-355v1366h355v-184h211q218 0 346 -123q73 -70 100 -151.5t27 -180.5q0 -101 -24.5 -185.5t-96.5 -154.5q-121 -119 -340 -119zM498 895v-340h118q103 0 150 43q45 39 45 125q0 82 -41 123q-47 49 -152 49h-120z" />
    <glyph glyph-name="germandbls" unicode="&#xdf;" horiz-adv-x="1208" 
d="M440 0h-327v1085q0 205 116 316q116 112 338 112q226 0 351 -120q106 -106 106 -283q0 -31 -5.5 -62.5t-20 -73t-48.5 -80t-84 -65.5q91 -29 156 -96q58 -60 84.5 -129t26.5 -160q0 -237 -152 -366q-83 -70 -190 -91.5t-254 -13.5v275q53 0 102.5 18.5t81.5 50.5
q55 55 55 142q0 92 -57 153q-72 77 -182 72v260h22q71 0 117 41q37 35 37 111q0 61 -35 100t-100 39q-60 0 -97 -37q-41 -41 -41 -127v-1071z" />
    <glyph glyph-name="agrave" unicode="&#xe0;" horiz-adv-x="1261" 
d="M821 827v88h328v-915h-328v100q-96 -131 -284 -131q-191 0 -330 146q-131 140 -131 336q0 225 141 366q60 60 146.5 94.5t183.5 34.5q166 0 274 -119zM621 668q-81 0 -144 -60q-65 -62 -65 -149q0 -90 63 -150q28 -26 68 -43.5t80 -17.5q84 0 147 63q61 61 61 148
q0 88 -63 149q-64 60 -147 60zM717 1065l-316 278l209 150l258 -315z" />
    <glyph glyph-name="aacute" unicode="&#xe1;" horiz-adv-x="1261" 
d="M821 827v88h328v-915h-328v100q-96 -131 -284 -131q-191 0 -330 146q-131 140 -131 336q0 225 141 366q60 60 146.5 94.5t183.5 34.5q166 0 274 -119zM621 668q-81 0 -144 -60q-65 -62 -65 -149q0 -90 63 -150q28 -26 68 -43.5t80 -17.5q84 0 147 63q61 61 61 148
q0 88 -63 149q-64 60 -147 60zM754 1493l207 -150l-316 -278l-151 113z" />
    <glyph glyph-name="acircumflex" unicode="&#xe2;" horiz-adv-x="1261" 
d="M821 827v88h328v-915h-328v100q-96 -131 -284 -131q-191 0 -330 146q-131 140 -131 336q0 225 141 366q60 60 146.5 94.5t183.5 34.5q166 0 274 -119zM621 668q-81 0 -144 -60q-65 -62 -65 -149q0 -90 63 -150q28 -26 68 -43.5t80 -17.5q84 0 147 63q61 61 61 148
q0 88 -63 149q-64 60 -147 60zM401 1065l-139 158l402 301l405 -301l-145 -158l-260 201z" />
    <glyph glyph-name="atilde" unicode="&#xe3;" horiz-adv-x="1261" 
d="M821 827v88h328v-915h-328v100q-96 -131 -284 -131q-191 0 -330 146q-131 140 -131 336q0 225 141 366q60 60 146.5 94.5t183.5 34.5q166 0 274 -119zM621 668q-81 0 -144 -60q-65 -62 -65 -149q0 -90 63 -150q28 -26 68 -43.5t80 -17.5q84 0 147 63q61 61 61 148
q0 88 -63 149q-64 60 -147 60zM872 1366l158 -94q-37 -92 -90 -142q-59 -59 -147 -59q-52 0 -119 31l-62 31q-47 24 -73 24q-25 0 -46.5 -21.5t-31.5 -64.5l-160 94q30 91 82 140q60 57 143 57q53 0 123 -29l60 -26q7 -3 22 -10t20.5 -9t15.5 -6t16.5 -5t13.5 -1q49 0 75 90
z" />
    <glyph glyph-name="adieresis" unicode="&#xe4;" horiz-adv-x="1261" 
d="M821 827v88h328v-915h-328v100q-96 -131 -284 -131q-191 0 -330 146q-131 140 -131 336q0 225 141 366q60 60 146.5 94.5t183.5 34.5q166 0 274 -119zM621 668q-81 0 -144 -60q-65 -62 -65 -149q0 -90 63 -150q28 -26 68 -43.5t80 -17.5q84 0 147 63q61 61 61 148
q0 88 -63 149q-64 60 -147 60zM897 1071q-73 0 -125 55q-51 57 -51 123q0 64 53 125q53 53 123 53q72 0 123 -51q55 -55 55 -127q0 -69 -53 -125q-53 -53 -125 -53zM432 1071q-73 0 -125 55q-51 57 -51 123q0 64 53 125q53 53 123 53q72 0 123 -51q55 -55 55 -127
q0 -69 -53 -125q-53 -53 -125 -53z" />
    <glyph glyph-name="aring" unicode="&#xe5;" horiz-adv-x="1261" 
d="M821 827v88h328v-915h-328v100q-96 -131 -284 -131q-191 0 -330 146q-131 140 -131 336q0 225 141 366q60 60 146.5 94.5t183.5 34.5q166 0 274 -119zM621 668q-81 0 -144 -60q-65 -62 -65 -149q0 -90 63 -150q28 -26 68 -43.5t80 -17.5q84 0 147 63q61 61 61 148
q0 88 -63 149q-64 60 -147 60zM946 1282q0 -82 -53 -135q-76 -76 -227 -76q-152 0 -228 76q-53 53 -53 135q0 84 53 137q76 76 228 76q151 0 227 -76q53 -53 53 -137zM666 1366q-57 0 -88 -31q-21 -21 -21 -51t21 -51q31 -31 88 -31t88 31q20 20 20 51t-20 51q-31 31 -88 31
z" />
    <glyph glyph-name="ae" unicode="&#xe6;" horiz-adv-x="1757" 
d="M1681 406h-686q0 -96 62 -158q51 -51 147 -51q68 0 103 26q29 19 47 60h313q-45 -144 -166 -232q-115 -82 -301 -82q-144 0 -244 54q-84 45 -125 124q-66 -83 -163 -129q-106 -45 -213 -45q-94 0 -172.5 28.5t-128.5 78.5q-78 78 -78 188q0 119 80 199q104 104 303 104
q127 0 233 -47v23q0 69 -43 112q-54 54 -176 54q-120 0 -254 -51v243q150 43 273 43q114 0 190 -35q96 -44 149 -127q58 75 140 117q94 45 213 45q114 0 209 -35.5t155 -95.5q133 -133 133 -385v-26zM1004 592h376q-13 62 -55 98q-57 51 -137 51q-70 0 -121 -45
q-45 -42 -63 -104zM541 389q-79 0 -117 -29q-33 -24 -33 -69q0 -44 39 -70q42 -31 109 -31q54 0 106 25q55 28 55 76q0 21 -14 42t-35 32q-46 24 -110 24z" />
    <glyph glyph-name="ccedilla" unicode="&#xe7;" horiz-adv-x="878" 
d="M805 295v-275q-104 -51 -227 -51q-214 0 -361 140q-66 64 -103.5 153.5t-37.5 188.5q0 101 39 193.5t108 160.5q146 139 369 139q111 0 213 -51v-275q-83 60 -170 60q-96 0 -160 -64q-63 -63 -63 -157q0 -91 57 -154q66 -70 168 -70q96 0 168 62zM508 -94l217 -90
l-254 -299l-172 82z" />
    <glyph glyph-name="egrave" unicode="&#xe8;" horiz-adv-x="1159" 
d="M1083 432v-35h-682q0 -40 15 -82.5t43 -70.5q45 -45 135 -45q63 0 106 24q40 24 58 62h313q-31 -112 -110 -189q-131 -127 -373 -127q-239 0 -379 140q-135 135 -135 346q0 220 137 354q137 133 375 133q218 0 352 -125q145 -138 145 -385zM412 586h370q-13 58 -53 98
q-49 49 -135 49q-84 0 -133 -49q-41 -45 -49 -98zM625 1065l-316 278l209 150l258 -315z" />
    <glyph glyph-name="eacute" unicode="&#xe9;" horiz-adv-x="1159" 
d="M1083 432v-35h-682q0 -40 15 -82.5t43 -70.5q45 -45 135 -45q63 0 106 24q40 24 58 62h313q-31 -112 -110 -189q-131 -127 -373 -127q-239 0 -379 140q-135 135 -135 346q0 220 137 354q137 133 375 133q218 0 352 -125q145 -138 145 -385zM412 586h370q-13 58 -53 98
q-49 49 -135 49q-84 0 -133 -49q-41 -45 -49 -98zM702 1493l207 -150l-315 -278l-152 113z" />
    <glyph glyph-name="ecircumflex" unicode="&#xea;" horiz-adv-x="1159" 
d="M1083 432v-35h-682q0 -40 15 -82.5t43 -70.5q45 -45 135 -45q63 0 106 24q40 24 58 62h313q-31 -112 -110 -189q-131 -127 -373 -127q-239 0 -379 140q-135 135 -135 346q0 220 137 354q137 133 375 133q218 0 352 -125q145 -138 145 -385zM412 586h370q-13 58 -53 98
q-49 49 -135 49q-84 0 -133 -49q-41 -45 -49 -98zM322 1065l-140 158l402 301l405 -301l-145 -158l-260 201z" />
    <glyph glyph-name="edieresis" unicode="&#xeb;" horiz-adv-x="1159" 
d="M1083 432v-35h-682q0 -40 15 -82.5t43 -70.5q45 -45 135 -45q63 0 106 24q40 24 58 62h313q-31 -112 -110 -189q-131 -127 -373 -127q-239 0 -379 140q-135 135 -135 346q0 220 137 354q137 133 375 133q218 0 352 -125q145 -138 145 -385zM412 586h370q-13 58 -53 98
q-49 49 -135 49q-84 0 -133 -49q-41 -45 -49 -98zM817 1071q-73 0 -125 55q-51 57 -51 123q0 64 53 125q53 53 123 53q72 0 123 -51q55 -55 55 -127q0 -69 -53 -125q-53 -53 -125 -53zM352 1071q-73 0 -125 55q-51 57 -51 123q0 64 53 125q53 53 123 53q72 0 123 -51
q55 -55 55 -127q0 -69 -53 -125q-53 -53 -125 -53z" />
    <glyph glyph-name="igrave" unicode="&#xec;" horiz-adv-x="546" 
d="M109 915h327v-915h-327v915zM276 1065l-315 278l209 150l258 -315z" />
    <glyph glyph-name="iacute" unicode="&#xed;" horiz-adv-x="546" 
d="M109 915h327v-915h-327v915zM389 1493l207 -150l-315 -278l-152 113z" />
    <glyph glyph-name="icircumflex" unicode="&#xee;" horiz-adv-x="546" 
d="M109 915h327v-915h-327v915zM12 1065l-139 158l401 301l406 -301l-145 -158l-261 201z" />
    <glyph glyph-name="idieresis" unicode="&#xef;" horiz-adv-x="546" 
d="M109 915h327v-915h-327v915zM504 1071q-73 0 -125 55q-51 57 -51 123q0 64 53 125q53 53 123 53q72 0 123 -51q55 -55 55 -127q0 -69 -53 -125q-53 -53 -125 -53zM39 1071q-73 0 -125 55q-51 57 -51 123q0 64 53 125q53 53 123 53q72 0 123 -51q55 -55 55 -127
q0 -69 -53 -125q-53 -53 -125 -53z" />
    <glyph glyph-name="eth" unicode="&#xf0;" horiz-adv-x="1208" 
d="M160 1260l61 227q279 0 471 -96l322 149l84 -156l-238 -108q150 -110 217 -272q70 -166 70 -400q0 -331 -164 -495q-136 -140 -385 -140q-116 0 -212.5 32.5t-180.5 117.5q-144 144 -144 354q0 203 138 330q67 62 163 97.5t195 35.5q160 0 283 -98q-13 116 -82 204
q-53 65 -135 103l-406 -197l-82 156l291 131q-111 25 -266 25zM604 662q-35 0 -73 -13.5t-64 -38.5q-31 -28 -48.5 -71t-17.5 -84q0 -42 17.5 -85t48.5 -71q54 -51 137 -51t137 51q31 28 48.5 71t17.5 85q0 41 -17.5 84t-48.5 71q-26 25 -64 38.5t-73 13.5z" />
    <glyph glyph-name="ntilde" unicode="&#xf1;" horiz-adv-x="1198" 
d="M113 0v915h327v-114q102 135 291 135q172 0 270 -98q54 -54 70 -111.5t16 -144.5v-582h-327v463q0 42 -1 63t-10.5 57.5t-29.5 57.5q-37 39 -105 39q-74 0 -120 -43q-24 -23 -39 -63t-15 -82v-492h-327zM807 1366l158 -94q-14 -36 -40 -77t-51 -65q-59 -59 -147 -59
q-52 0 -119 31l-61 31q-47 24 -74 24q-25 0 -46.5 -21.5t-31.5 -64.5l-159 94q30 92 81 140q60 57 144 57q53 0 123 -29l59 -26q7 -3 22 -10t20.5 -9t15.5 -6t16.5 -5t13.5 -1q50 0 76 90z" />
    <glyph glyph-name="ograve" unicode="&#xf2;" horiz-adv-x="1251" 
d="M627 668q-39 0 -79.5 -16.5t-68.5 -43.5q-63 -60 -63 -149q0 -83 63 -146q61 -61 148 -61q84 0 145 61q64 61 64 146q0 38 -17 78.5t-47 70.5q-28 27 -67.5 43.5t-77.5 16.5zM1176 459q0 -199 -142 -338q-155 -152 -409 -152t-408 152q-141 138 -141 338q0 199 141 336
q155 151 408 151q250 0 409 -151q142 -138 142 -336zM645 1065l-315 278l209 150l258 -315z" />
    <glyph glyph-name="oacute" unicode="&#xf3;" horiz-adv-x="1251" 
d="M627 668q-39 0 -79.5 -16.5t-68.5 -43.5q-63 -60 -63 -149q0 -83 63 -146q61 -61 148 -61q84 0 145 61q64 61 64 146q0 38 -17 78.5t-47 70.5q-28 27 -67.5 43.5t-77.5 16.5zM1176 459q0 -199 -142 -338q-155 -152 -409 -152t-408 152q-141 138 -141 338q0 199 141 336
q155 151 408 151q250 0 409 -151q142 -138 142 -336zM723 1493l207 -150l-316 -278l-151 113z" />
    <glyph glyph-name="ocircumflex" unicode="&#xf4;" horiz-adv-x="1251" 
d="M627 668q-39 0 -79.5 -16.5t-68.5 -43.5q-63 -60 -63 -149q0 -83 63 -146q61 -61 148 -61q84 0 145 61q64 61 64 146q0 38 -17 78.5t-47 70.5q-28 27 -67.5 43.5t-77.5 16.5zM1176 459q0 -199 -142 -338q-155 -152 -409 -152t-408 152q-141 138 -141 338q0 199 141 336
q155 151 408 151q250 0 409 -151q142 -138 142 -336zM369 1065l-140 158l402 301l405 -301l-145 -158l-260 201z" />
    <glyph glyph-name="otilde" unicode="&#xf5;" horiz-adv-x="1251" 
d="M627 668q-39 0 -79.5 -16.5t-68.5 -43.5q-63 -60 -63 -149q0 -83 63 -146q61 -61 148 -61q84 0 145 61q64 61 64 146q0 38 -17 78.5t-47 70.5q-28 27 -67.5 43.5t-77.5 16.5zM1176 459q0 -199 -142 -338q-155 -152 -409 -152t-408 152q-141 138 -141 338q0 199 141 336
q155 151 408 151q250 0 409 -151q142 -138 142 -336zM821 1366l158 -94q-37 -92 -90 -142q-59 -59 -148 -59q-51 0 -118 31l-62 31q-47 24 -74 24q-25 0 -46 -21.5t-31 -64.5l-160 94q30 91 82 140q60 57 143 57q53 0 123 -29l59 -26q7 -3 22 -10t20.5 -9t15.5 -6t16.5 -5
t13.5 -1q50 0 76 90z" />
    <glyph glyph-name="odieresis" unicode="&#xf6;" horiz-adv-x="1251" 
d="M627 668q-39 0 -79.5 -16.5t-68.5 -43.5q-63 -60 -63 -149q0 -83 63 -146q61 -61 148 -61q84 0 145 61q64 61 64 146q0 38 -17 78.5t-47 70.5q-28 27 -67.5 43.5t-77.5 16.5zM1176 459q0 -199 -142 -338q-155 -152 -409 -152t-408 152q-141 138 -141 338q0 199 141 336
q155 151 408 151q250 0 409 -151q142 -138 142 -336zM864 1071q-73 0 -125 55q-51 57 -51 123q0 64 53 125q53 53 123 53q72 0 123 -51q55 -55 55 -127q0 -69 -53 -125q-53 -53 -125 -53zM399 1071q-73 0 -125 55q-51 57 -51 123q0 64 53 125q53 53 123 53q72 0 123 -51
q56 -56 56 -127q0 -68 -54 -125q-53 -53 -125 -53z" />
    <glyph glyph-name="divide" unicode="&#xf7;" 
d="M358 1044q0 64 43 107q45 45 111 45q63 0 106 -43q46 -46 46 -109q0 -62 -46 -108q-46 -43 -106 -43q-69 0 -111 45q-43 43 -43 106zM68 573v246h888v-246h-888zM358 348q0 64 43 107q45 45 111 45q63 0 106 -43q46 -46 46 -109q0 -62 -46 -108q-46 -43 -106 -43
q-69 0 -111 45q-43 43 -43 106z" />
    <glyph glyph-name="oslash" unicode="&#xf8;" horiz-adv-x="1228" 
d="M434 369l275 274q-45 25 -91 25q-86 0 -149 -60q-61 -58 -61 -145q0 -44 26 -94zM805 549l-273 -273q38 -24 86 -24q87 0 148 61t61 146q0 52 -22 90zM1176 909l-138 -135q129 -125 129 -315q0 -200 -141 -338q-86 -85 -187 -118.5t-223 -33.5q-174 0 -307 74l-147 -147
l-109 102l140 139q-125 134 -125 322q0 201 141 336q155 151 407 151q172 0 306 -76l145 144z" />
    <glyph glyph-name="ugrave" unicode="&#xf9;" horiz-adv-x="1208" 
d="M113 915h327v-512q0 -89 49 -133q39 -34 115 -34q77 0 117 38q47 47 47 129v512h328v-571q0 -74 -16.5 -131.5t-71.5 -114.5q-76 -78 -175.5 -103.5t-220.5 -25.5q-60 0 -108.5 4.5t-106.5 17t-108.5 40t-89.5 69.5q-86 91 -86 244v571zM606 1065l-315 278l209 150
l258 -315z" />
    <glyph glyph-name="uacute" unicode="&#xfa;" horiz-adv-x="1208" 
d="M113 915h327v-512q0 -89 49 -133q39 -34 115 -34q77 0 117 38q47 47 47 129v512h328v-571q0 -74 -16.5 -131.5t-71.5 -114.5q-76 -78 -175.5 -103.5t-220.5 -25.5q-60 0 -108.5 4.5t-106.5 17t-108.5 40t-89.5 69.5q-86 91 -86 244v571zM715 1493l207 -150l-316 -278
l-151 113z" />
    <glyph glyph-name="ucircumflex" unicode="&#xfb;" horiz-adv-x="1208" 
d="M113 915h327v-512q0 -89 49 -133q39 -34 115 -34q77 0 117 38q47 47 47 129v512h328v-571q0 -74 -16.5 -131.5t-71.5 -114.5q-76 -78 -175.5 -103.5t-220.5 -25.5q-60 0 -108.5 4.5t-106.5 17t-108.5 40t-89.5 69.5q-86 91 -86 244v571zM342 1065l-139 158l401 301
l406 -301l-146 -158l-260 201z" />
    <glyph glyph-name="udieresis" unicode="&#xfc;" horiz-adv-x="1208" 
d="M113 915h327v-512q0 -89 49 -133q39 -34 115 -34q77 0 117 38q47 47 47 129v512h328v-571q0 -74 -16.5 -131.5t-71.5 -114.5q-76 -78 -175.5 -103.5t-220.5 -25.5q-60 0 -108.5 4.5t-106.5 17t-108.5 40t-89.5 69.5q-86 91 -86 244v571zM838 1071q-73 0 -125 55
q-51 57 -51 123q0 64 53 125q53 53 123 53q72 0 123 -51q55 -55 55 -127q0 -69 -53 -125q-53 -53 -125 -53zM373 1071q-73 0 -125 55q-51 57 -51 123q0 64 53 125q53 53 123 53q72 0 123 -51q55 -55 55 -127q0 -69 -53 -125q-53 -53 -125 -53z" />
    <glyph glyph-name="yacute" unicode="&#xfd;" horiz-adv-x="1236" 
d="M135 -469l307 594l-442 790h381l244 -469l237 469h375l-735 -1384h-367zM731 1493l207 -150l-315 -278l-152 113z" />
    <glyph glyph-name="thorn" unicode="&#xfe;" horiz-adv-x="1261" 
d="M440 88v-557h-327v1962h327v-678q104 131 281 131q193 0 326 -133q139 -139 139 -354q0 -218 -148 -363q-130 -127 -313 -127q-170 0 -285 119zM641 668q-85 0 -147 -62q-64 -64 -64 -151q0 -38 18.5 -78.5t45.5 -67.5q61 -61 147 -61q87 0 145 61q28 28 46 67t18 79
q0 87 -64 151q-59 62 -145 62z" />
    <glyph glyph-name="ydieresis" unicode="&#xff;" horiz-adv-x="1236" 
d="M135 -469l307 594l-442 790h381l244 -469l237 469h375l-735 -1384h-367zM854 1071q-73 0 -125 55q-51 57 -51 123q0 64 53 125q53 53 123 53q72 0 123 -51q55 -55 55 -127q0 -69 -53 -125q-53 -53 -125 -53zM389 1071q-73 0 -125 55q-51 57 -51 123q0 64 53 125
q53 53 123 53q72 0 123 -51q55 -55 55 -127q0 -69 -53 -125q-53 -53 -125 -53z" />
    <glyph glyph-name="Amacron" unicode="&#x100;" horiz-adv-x="1454" 
d="M1061 0l-84 229h-496l-92 -229h-375l525 1366h387l514 -1366h-379zM580 500h303l-154 442zM342 1534v201h770v-201h-770z" />
    <glyph glyph-name="amacron" unicode="&#x101;" horiz-adv-x="1261" 
d="M821 827v88h328v-915h-328v100q-96 -131 -284 -131q-191 0 -330 146q-131 140 -131 336q0 225 141 366q60 60 146.5 94.5t183.5 34.5q166 0 274 -119zM621 668q-81 0 -144 -60q-65 -62 -65 -149q0 -90 63 -150q28 -26 68 -43.5t80 -17.5q84 0 147 63q61 61 61 148
q0 88 -63 149q-64 60 -147 60zM240 1104v201h811v-201h-811z" />
    <glyph glyph-name="Abreve" unicode="&#x102;" horiz-adv-x="1454" 
d="M1061 0l-84 229h-496l-92 -229h-375l525 1366h387l514 -1366h-379zM580 500h303l-154 442zM870 1796h211q-2 -135 -90 -223q-92 -92 -266 -92t-266 92q-88 88 -90 223h211q6 -53 41 -84q40 -37 104 -37t104 37q35 31 41 84z" />
    <glyph glyph-name="abreve" unicode="&#x103;" horiz-adv-x="1261" 
d="M821 827v88h328v-915h-328v100q-96 -131 -284 -131q-191 0 -330 146q-131 140 -131 336q0 225 141 366q60 60 146.5 94.5t183.5 34.5q166 0 274 -119zM621 668q-81 0 -144 -60q-65 -62 -65 -149q0 -90 63 -150q28 -26 68 -43.5t80 -17.5q84 0 147 63q61 61 61 148
q0 88 -63 149q-64 60 -147 60zM791 1386h210q-2 -135 -90 -223q-92 -92 -266 -92t-266 92q-88 88 -90 223h211q6 -52 41 -83q40 -37 104 -37q65 0 105 37q35 31 41 83z" />
    <glyph glyph-name="Aogonek" unicode="&#x104;" horiz-adv-x="1454" 
d="M483 238l-94 -238h-375l525 1366h387l514 -1366h-217q-47 -28 -76 -61q-43 -46 -43 -95q0 -28 20 -45q18 -18 54 -18q53 0 100 37l-45 -176q-67 -37 -135 -37q-96 0 -150 57q-43 43 -43 113q0 68 43 125q39 55 113 100l-88 238h-490zM582 508h295l-148 434z" />
    <glyph glyph-name="aogonek" unicode="&#x105;" horiz-adv-x="1261" 
d="M819 827v88h328v-915h-82q-53 -34 -80 -61q-39 -35 -39 -78q0 -33 23 -56q22 -22 59 -22q46 0 100 37l-43 -174q-53 -35 -135 -35q-98 0 -147 55q-41 45 -41 105q0 66 39 125q44 63 114 104h-96v109q-105 -140 -282 -140q-88 0 -175 36.5t-157 109.5q-129 132 -129 338
q0 118 39 210.5t100 153.5q60 60 145.5 94.5t174.5 34.5q171 0 284 -119zM621 668q-86 0 -146 -60q-63 -61 -63 -149q0 -89 61 -150t148 -61q84 0 147 63q61 61 61 148q0 86 -63 149q-60 60 -145 60z" />
    <glyph glyph-name="Cacute" unicode="&#x106;" horiz-adv-x="1206" 
d="M1124 457v-420q-105 -38 -173 -53t-134 -15q-167 0 -301 56.5t-227 148.5q-99 99 -153 231t-54 267q0 143 56 275t151 229t229 155t287 58q145 0 319 -70v-424q-122 149 -309 149q-145 0 -246 -90q-118 -110 -118 -280q0 -73 28.5 -144.5t81.5 -121.5q46 -43 113.5 -69
t140.5 -26q178 0 309 144zM907 1903l207 -150l-315 -278l-152 112z" />
    <glyph glyph-name="cacute" unicode="&#x107;" horiz-adv-x="878" 
d="M805 295v-275q-104 -51 -227 -51q-214 0 -361 140q-66 64 -103.5 153.5t-37.5 188.5q0 101 39 193.5t108 160.5q146 139 369 139q111 0 213 -51v-275q-83 60 -170 60q-96 0 -160 -64q-63 -63 -63 -157q0 -91 57 -154q66 -70 168 -70q96 0 168 62zM682 1493l207 -150
l-316 -278l-151 113z" />
    <glyph glyph-name="Ccircumflex" unicode="&#x108;" horiz-adv-x="1206" 
d="M1124 457v-420q-105 -38 -173 -53t-134 -15q-167 0 -301 56.5t-227 148.5q-99 99 -153 231t-54 267q0 143 56 275t151 229t229 155t287 58q145 0 319 -70v-424q-122 149 -309 149q-145 0 -246 -90q-118 -110 -118 -280q0 -73 28.5 -144.5t81.5 -121.5q46 -43 113.5 -69
t140.5 -26q178 0 309 144zM555 1475l-139 157l401 301l406 -301l-146 -157l-260 200z" />
    <glyph glyph-name="ccircumflex" unicode="&#x109;" horiz-adv-x="878" 
d="M805 295v-275q-104 -51 -227 -51q-214 0 -361 140q-66 64 -103.5 153.5t-37.5 188.5q0 101 39 193.5t108 160.5q146 139 369 139q111 0 213 -51v-275q-83 60 -170 60q-96 0 -160 -64q-63 -63 -63 -157q0 -91 57 -154q66 -70 168 -70q96 0 168 62zM309 1065l-139 158
l401 301l406 -301l-146 -158l-260 201z" />
    <glyph glyph-name="Cdotaccent" unicode="&#x10a;" horiz-adv-x="1206" 
d="M1124 457v-420q-105 -38 -173 -53t-134 -15q-167 0 -301 56.5t-227 148.5q-99 99 -153 231t-54 267q0 143 56 275t151 229t229 155t287 58q145 0 319 -70v-424q-122 149 -309 149q-145 0 -246 -90q-118 -110 -118 -280q0 -73 28.5 -144.5t81.5 -121.5q46 -43 113.5 -69
t140.5 -26q178 0 309 144zM766 1481q-75 0 -131 53q-55 55 -55 129q0 82 55 137q53 53 131 53t131 -53q55 -55 55 -133q0 -81 -55 -133q-56 -53 -131 -53z" />
    <glyph glyph-name="cdotaccent" unicode="&#x10b;" horiz-adv-x="878" 
d="M805 295v-275q-104 -51 -227 -51q-214 0 -361 140q-66 64 -103.5 153.5t-37.5 188.5q0 101 39 193.5t108 160.5q146 139 369 139q111 0 213 -51v-275q-83 60 -170 60q-96 0 -160 -64q-63 -63 -63 -157q0 -91 57 -154q66 -70 168 -70q96 0 168 62zM532 1071q-75 0 -131 53
q-55 55 -55 129q0 83 55 138q53 53 131 53q79 0 132 -53q55 -55 55 -134q0 -81 -55 -133q-56 -53 -132 -53z" />
    <glyph glyph-name="Ccaron" unicode="&#x10c;" horiz-adv-x="1206" 
d="M1124 457v-420q-105 -38 -173 -53t-134 -15q-167 0 -301 56.5t-227 148.5q-99 99 -153 231t-54 267q0 143 56 275t151 229t229 155t287 58q145 0 319 -70v-424q-122 149 -309 149q-145 0 -246 -90q-118 -110 -118 -280q0 -73 28.5 -144.5t81.5 -121.5q46 -43 113.5 -69
t140.5 -26q178 0 309 144zM797 1475l-402 301l140 157l262 -200l260 200l145 -157z" />
    <glyph glyph-name="ccaron" unicode="&#x10d;" horiz-adv-x="878" 
d="M805 295v-275q-104 -51 -227 -51q-214 0 -361 140q-66 64 -103.5 153.5t-37.5 188.5q0 101 39 193.5t108 160.5q146 139 369 139q111 0 213 -51v-275q-83 60 -170 60q-96 0 -160 -64q-63 -63 -63 -157q0 -91 57 -154q66 -70 168 -70q96 0 168 62zM571 1065l-401 301
l139 158l262 -201l260 201l146 -158z" />
    <glyph glyph-name="Dcaron" unicode="&#x10e;" horiz-adv-x="1423" 
d="M639 0h-496v1366h465q348 0 543 -188q190 -183 190 -498q0 -295 -178 -473q-90 -90 -225 -148.5t-299 -58.5zM498 1065v-764h71q199 0 299 98q105 100 105 281q0 95 -28 173.5t-79 125.5q-56 52 -126.5 69t-155.5 17h-86zM633 1475l-402 301l140 157l262 -200l260 200
l145 -157z" />
    <glyph glyph-name="dcaron" unicode="&#x10f;" horiz-adv-x="1581" 
d="M1149 1493v-1493h-328v100q-101 -131 -276 -131q-192 0 -322 127q-70 68 -108.5 162.5t-38.5 202.5q0 111 41 204.5t108 157.5q129 123 324 123q161 0 272 -119v666h328zM621 248q79 0 141 55q32 29 50.5 71.5t18.5 84.5q0 37 -17.5 78.5t-43.5 68.5q-59 62 -149 62
q-86 0 -146 -60q-63 -63 -63 -155q0 -81 63 -144q61 -61 146 -61zM1225 1004l110 430l307 -54l-212 -413z" />
    <glyph glyph-name="Dcroat" unicode="&#x110;" horiz-adv-x="1509" 
d="M725 0h-496v606h-188v246h188v514h465q348 0 543 -188q190 -183 190 -498q0 -295 -178 -473q-90 -90 -225 -148.5t-299 -58.5zM584 1065v-213h241v-246h-241v-305h71q199 0 299 98q105 100 105 281q0 95 -28 173.5t-79 125.5q-56 52 -126.5 69t-155.5 17h-86z" />
    <glyph glyph-name="dcroat" unicode="&#x111;" horiz-adv-x="1257" 
d="M1147 1493v-195h168v-221h-168v-1077h-328v100q-99 -131 -274 -131q-193 0 -324 127q-68 67 -106.5 163t-38.5 202q0 100 38 197t109 165q65 61 150.5 92t175.5 31q163 0 270 -119v250h-336v221h336v195h328zM618 248q85 0 144 55q30 27 48.5 71t18.5 85q0 36 -17.5 79
t-41.5 68q-59 62 -152 62q-85 0 -145 -60q-29 -29 -45 -71.5t-16 -83.5q0 -35 16.5 -74.5t44.5 -69.5q58 -61 145 -61z" />
    <glyph glyph-name="Emacron" unicode="&#x112;" horiz-adv-x="1001" 
d="M920 1366v-301h-422v-227h399v-301h-399v-236h422v-301h-777v1366h777zM147 1534v201h771v-201h-771z" />
    <glyph glyph-name="emacron" unicode="&#x113;" horiz-adv-x="1159" 
d="M1083 432v-35h-682q0 -40 15 -82.5t43 -70.5q45 -45 135 -45q63 0 106 24q40 24 58 62h313q-31 -112 -110 -189q-131 -127 -373 -127q-239 0 -379 140q-135 135 -135 346q0 220 137 354q137 133 375 133q218 0 352 -125q145 -138 145 -385zM412 586h370q-13 58 -53 98
q-49 49 -135 49q-84 0 -133 -49q-41 -45 -49 -98zM180 1104v201h811v-201h-811z" />
    <glyph glyph-name="Edotaccent" unicode="&#x116;" horiz-adv-x="1001" 
d="M920 1366v-301h-422v-227h399v-301h-399v-236h422v-301h-777v1366h777zM532 1481q-75 0 -131 53q-55 55 -55 129q0 82 55 137q53 53 131 53q79 0 132 -53q55 -55 55 -133q0 -81 -55 -133q-56 -53 -132 -53z" />
    <glyph glyph-name="edotaccent" unicode="&#x117;" horiz-adv-x="1159" 
d="M1083 432v-35h-682q0 -40 15 -82.5t43 -70.5q45 -45 135 -45q63 0 106 24q40 24 58 62h313q-31 -112 -110 -189q-131 -127 -373 -127q-239 0 -379 140q-135 135 -135 346q0 220 137 354q137 133 375 133q218 0 352 -125q145 -138 145 -385zM412 586h370q-13 58 -53 98
q-49 49 -135 49q-84 0 -133 -49q-41 -45 -49 -98zM586 1071q-75 0 -131 53q-56 56 -56 129q0 82 56 138q53 53 131 53t131 -53q55 -55 55 -134q0 -81 -55 -133q-56 -53 -131 -53z" />
    <glyph glyph-name="Eogonek" unicode="&#x118;" horiz-adv-x="1001" 
d="M920 1366v-301h-422v-227h399v-301h-399v-236h422v-301h-82q-47 -28 -76 -61q-43 -46 -43 -95q0 -28 20 -45q18 -18 54 -18q53 0 100 37l-45 -176q-67 -37 -135 -37q-96 0 -150 57q-43 43 -43 113q0 68 43 125q39 55 113 100h-533v1366h777z" />
    <glyph glyph-name="eogonek" unicode="&#x119;" horiz-adv-x="1159" 
d="M1083 432v-35h-682q0 -43 16.5 -86t43.5 -69q49 -45 139 -45q58 0 107 30q35 22 51 56h313q-28 -114 -110 -193q-45 -43 -121 -82q-10 -7 -33 -20.5t-39 -24.5t-29 -24q-39 -35 -39 -78q0 -33 23 -56q22 -22 59 -22q47 0 101 37l-43 -174q-52 -35 -135 -35q-99 0 -148 55
q-41 48 -41 105q0 60 35 116q31 51 76 82q-16 -2 -52 -2q-231 0 -374 148q-127 136 -127 340q0 221 137 354t375 133q218 0 352 -125q145 -138 145 -385zM412 586h370q-13 58 -53 98q-49 49 -135 49q-87 0 -133 -49q-41 -41 -49 -98z" />
    <glyph glyph-name="Ecaron" unicode="&#x11a;" horiz-adv-x="1001" 
d="M920 1366v-301h-422v-227h399v-301h-399v-236h422v-301h-777v1366h777zM530 1475l-401 301l139 157l262 -200l261 200l145 -157z" />
    <glyph glyph-name="ecaron" unicode="&#x11b;" horiz-adv-x="1159" 
d="M1083 432v-35h-682q0 -40 15 -82.5t43 -70.5q45 -45 135 -45q63 0 106 24q40 24 58 62h313q-31 -112 -110 -189q-131 -127 -373 -127q-239 0 -379 140q-135 135 -135 346q0 220 137 354q137 133 375 133q218 0 352 -125q145 -138 145 -385zM412 586h370q-13 58 -53 98
q-49 49 -135 49q-84 0 -133 -49q-41 -45 -49 -98zM584 1065l-402 301l140 158l262 -201l260 201l145 -158z" />
    <glyph glyph-name="Gcircumflex" unicode="&#x11c;" horiz-adv-x="1585" 
d="M799 498v276h704q0 -210 -50 -356.5t-169 -257.5q-185 -172 -481 -172q-326 0 -524 202q-86 86 -141.5 211.5t-55.5 282.5q0 156 55.5 288t149.5 224q201 201 530 201q217 0 369 -92q77 -48 141.5 -123.5t102.5 -157.5l-338 -139q-32 82 -99 137q-82 68 -190 68
q-139 0 -234 -95q-57 -57 -87.5 -143t-30.5 -170q0 -178 108 -295q98 -104 250 -104q122 0 197 63q69 56 84 152h-291zM555 1475l-139 157l401 301l406 -301l-146 -157l-260 200z" />
    <glyph glyph-name="gcircumflex" unicode="&#x11d;" horiz-adv-x="1255" 
d="M815 915h328v-858q0 -123 -24 -211t-101 -168q-145 -147 -404 -147q-269 0 -428 162q-85 88 -100 190h365q30 -94 153 -94q93 0 146 51q65 60 65 170v92q-68 -73 -135 -96.5t-139 -23.5q-213 0 -338 129q-61 62 -94 150t-33 183q0 105 36.5 199.5t98.5 159.5
q65 68 152 103.5t180 35.5q165 0 272 -121v94zM621 670q-84 0 -146 -62q-63 -66 -63 -147q0 -87 63 -150q59 -59 148 -59q86 0 147 61q29 29 45 70t16 78q0 36 -18 78t-47 71q-60 60 -145 60zM399 1065l-139 158l402 301l405 -301l-145 -158l-260 201z" />
    <glyph glyph-name="Gbreve" unicode="&#x11e;" horiz-adv-x="1585" 
d="M799 498v276h704q0 -210 -50 -356.5t-169 -257.5q-185 -172 -481 -172q-326 0 -524 202q-86 86 -141.5 211.5t-55.5 282.5q0 156 55.5 288t149.5 224q201 201 530 201q217 0 369 -92q77 -48 141.5 -123.5t102.5 -157.5l-338 -139q-32 82 -99 137q-82 68 -190 68
q-139 0 -234 -95q-57 -57 -87.5 -143t-30.5 -170q0 -178 108 -295q98 -104 250 -104q122 0 197 63q69 56 84 152h-291zM954 1796h211q-2 -135 -90 -223q-92 -92 -266 -92t-266 92q-88 88 -90 223h211q6 -53 41 -84q40 -37 104 -37t104 37q35 31 41 84z" />
    <glyph glyph-name="gbreve" unicode="&#x11f;" horiz-adv-x="1255" 
d="M815 915h328v-858q0 -123 -24 -211t-101 -168q-145 -147 -404 -147q-269 0 -428 162q-85 88 -100 190h365q30 -94 153 -94q93 0 146 51q65 60 65 170v92q-68 -73 -135 -96.5t-139 -23.5q-213 0 -338 129q-61 62 -94 150t-33 183q0 105 36.5 199.5t98.5 159.5
q65 68 152 103.5t180 35.5q165 0 272 -121v94zM621 670q-84 0 -146 -62q-63 -66 -63 -147q0 -87 63 -150q59 -59 148 -59q86 0 147 61q29 29 45 70t16 78q0 36 -18 78t-47 71q-60 60 -145 60zM760 1386h211q-2 -135 -90 -223q-92 -92 -267 -92q-174 0 -266 92
q-88 88 -90 223h211q6 -52 41 -83q40 -37 104 -37q65 0 105 37q35 31 41 83z" />
    <glyph glyph-name="Gdotaccent" unicode="&#x120;" horiz-adv-x="1585" 
d="M799 498v276h704q0 -210 -50 -356.5t-169 -257.5q-185 -172 -481 -172q-326 0 -524 202q-86 86 -141.5 211.5t-55.5 282.5q0 156 55.5 288t149.5 224q201 201 530 201q217 0 369 -92q77 -48 141.5 -123.5t102.5 -157.5l-338 -139q-32 82 -99 137q-82 68 -190 68
q-139 0 -234 -95q-57 -57 -87.5 -143t-30.5 -170q0 -178 108 -295q98 -104 250 -104q122 0 197 63q69 56 84 152h-291zM815 1481q-75 0 -131 53q-55 55 -55 129q0 82 55 137q53 53 131 53t131 -53q55 -55 55 -133q0 -81 -55 -133q-56 -53 -131 -53z" />
    <glyph glyph-name="gdotaccent" unicode="&#x121;" horiz-adv-x="1255" 
d="M815 915h328v-858q0 -123 -24 -211t-101 -168q-145 -147 -404 -147q-269 0 -428 162q-85 88 -100 190h365q30 -94 153 -94q93 0 146 51q65 60 65 170v92q-68 -73 -135 -96.5t-139 -23.5q-213 0 -338 129q-61 62 -94 150t-33 183q0 105 36.5 199.5t98.5 159.5
q65 68 152 103.5t180 35.5q165 0 272 -121v94zM621 670q-84 0 -146 -62q-63 -66 -63 -147q0 -87 63 -150q59 -59 148 -59q86 0 147 61q29 29 45 70t16 78q0 36 -18 78t-47 71q-60 60 -145 60zM614 1071q-75 0 -131 53q-55 55 -55 129q0 83 55 138q53 53 131 53t131 -53
q56 -56 56 -134q0 -80 -56 -133t-131 -53z" />
    <glyph glyph-name="Gcommaaccent" unicode="&#x122;" horiz-adv-x="1585" 
d="M799 498v276h704q0 -210 -50 -356.5t-169 -257.5q-185 -172 -481 -172q-326 0 -524 202q-86 86 -141.5 211.5t-55.5 282.5q0 156 55.5 288t149.5 224q201 201 530 201q217 0 369 -92q77 -48 141.5 -123.5t102.5 -157.5l-338 -139q-32 82 -99 137q-82 68 -190 68
q-139 0 -234 -95q-57 -57 -87.5 -143t-30.5 -170q0 -178 108 -295q98 -104 250 -104q122 0 197 63q69 56 84 152h-291zM553 -508l106 406l308 -33l-209 -397z" />
    <glyph glyph-name="gcommaaccent" unicode="&#x123;" horiz-adv-x="1255" 
d="M815 915h328v-858q0 -123 -24 -211t-101 -168q-145 -147 -404 -147q-269 0 -428 162q-85 88 -100 190h365q30 -94 153 -94q93 0 146 51q65 60 65 170v92q-68 -73 -135 -96.5t-139 -23.5q-213 0 -338 129q-61 62 -94 150t-33 183q0 105 36.5 199.5t98.5 159.5
q65 68 152 103.5t180 35.5q165 0 272 -121v94zM621 670q-84 0 -146 -62q-63 -66 -63 -147q0 -87 63 -150q59 -59 148 -59q86 0 147 61q29 29 45 70t16 78q0 36 -18 78t-47 71q-60 60 -145 60zM840 1430l-107 -386l-307 33l209 377z" />
    <glyph glyph-name="Hcircumflex" unicode="&#x124;" horiz-adv-x="1509" 
d="M498 1366v-510h512v510h356v-1366h-356v553h-512v-553h-355v1366h355zM489 1475l-139 157l402 301l405 -301l-145 -157l-260 200z" />
    <glyph glyph-name="hcircumflex" unicode="&#x125;" horiz-adv-x="1198" 
d="M113 0v1493h327v-692q45 56 103 90q77 45 188 45q172 0 270 -98q55 -55 70.5 -113.5t15.5 -142.5v-582h-327v463q0 133 -41 178q-35 39 -105 39q-74 0 -118 -39q-56 -52 -56 -149v-492h-327zM23 1516l-140 157l402 301l405 -301l-145 -157l-260 200z" />
    <glyph glyph-name="Hbar" unicode="&#x126;" horiz-adv-x="1509" 
d="M498 1366v-109h512v109h356v-109h115v-239h-115v-1018h-356v553h-512v-553h-355v1018h-114v239h114v109h355zM1010 1018h-512v-162h512v162z" />
    <glyph glyph-name="hbar" unicode="&#x127;" horiz-adv-x="1273" 
d="M188 0v1077h-168v221h168v195h328v-195h336v-221h-336v-276q46 57 102 90q77 45 189 45q172 0 270 -98q55 -55 70.5 -113.5t15.5 -142.5v-582h-327v463q0 133 -41 178q-35 39 -105 39q-75 0 -119 -39q-55 -51 -55 -149v-492h-328z" />
    <glyph glyph-name="Imacron" unicode="&#x12a;" horiz-adv-x="641" 
d="M143 1366h355v-1366h-355v1366zM-63 1534v201h770v-201h-770z" />
    <glyph glyph-name="imacron" unicode="&#x12b;" horiz-adv-x="546" 
d="M109 915h327v-915h-327v915zM-129 1104v201h811v-201h-811z" />
    <glyph glyph-name="Iogonek" unicode="&#x12e;" horiz-adv-x="641" 
d="M143 1366h355v-1366q-47 -28 -76 -61q-43 -46 -43 -95q0 -28 20 -45q18 -18 54 -18q53 0 100 37l-45 -176q-67 -37 -135 -37q-96 0 -150 57q-43 43 -43 113q0 68 43 125q39 55 113 100h-193v1366z" />
    <glyph glyph-name="iogonek" unicode="&#x12f;" horiz-adv-x="546" 
d="M109 915h327v-915q-45 -26 -80 -61q-39 -39 -39 -78q0 -33 23 -56q22 -22 57 -22q49 0 103 37l-45 -174q-61 -35 -133 -35q-96 0 -148 55q-43 49 -43 105q0 61 41 125q42 63 113 104h-176v915zM276 1104q-75 0 -131 53q-53 50 -53 129q0 32 14.5 67.5t38.5 61.5
q53 53 125 53q78 0 127 -49q60 -56 60 -133q0 -73 -56 -129q-53 -53 -125 -53z" />
    <glyph glyph-name="Idotaccent" unicode="&#x130;" horiz-adv-x="641" 
d="M143 1366h355v-1366h-355v1366zM322 1481q-76 0 -132 53q-55 55 -55 129q0 82 55 137q53 53 132 53q78 0 131 -53q55 -55 55 -133q0 -81 -55 -133q-56 -53 -131 -53z" />
    <glyph glyph-name="dotlessi" unicode="&#x131;" horiz-adv-x="546" 
d="M109 915h327v-915h-327v915z" />
    <glyph glyph-name="Jcircumflex" unicode="&#x134;" horiz-adv-x="958" 
d="M461 1366h354v-940q0 -110 -22 -182.5t-95 -145.5q-129 -129 -333 -129q-119 0 -215 62q-80 54 -136 139l232 238q3 -30 17 -62.5t32 -46.5q32 -25 67 -25t62 23q37 35 37 137v932zM350 1475l-139 157l401 301l406 -301l-146 -157l-260 200z" />
    <glyph glyph-name="jcircumflex" unicode="&#x135;" horiz-adv-x="546" 
d="M109 915h327v-1384h-327v1384zM12 1065l-139 158l401 301l406 -301l-145 -158l-261 201z" />
    <glyph glyph-name="Kcommaaccent" unicode="&#x136;" horiz-adv-x="1433" 
d="M498 1366v-563l434 563h438l-543 -647l592 -719h-458l-463 592v-592h-355v1366h355zM471 -508l107 406l307 -33l-209 -397z" />
    <glyph glyph-name="kcommaaccent" unicode="&#x137;" horiz-adv-x="1230" 
d="M113 1493h327v-907l310 329h444l-432 -421l467 -494h-455l-334 375v-375h-327v1493zM389 -487l107 385l307 -33l-209 -377z" />
    <glyph glyph-name="Lacute" unicode="&#x139;" horiz-adv-x="962" 
d="M143 1366h355v-1065h426v-301h-781v1366zM487 1903l207 -150l-315 -278l-152 112z" />
    <glyph glyph-name="lacute" unicode="&#x13a;" horiz-adv-x="550" 
d="M113 1493h327v-1493h-327v1493zM385 2005l207 -150l-316 -278l-151 113z" />
    <glyph glyph-name="Lcommaaccent" unicode="&#x13b;" horiz-adv-x="962" 
d="M143 1366h355v-1065h426v-301h-781v1366zM307 -508l107 406l307 -33l-209 -397z" />
    <glyph glyph-name="lcommaaccent" unicode="&#x13c;" horiz-adv-x="550" 
d="M113 1493h327v-1493h-327v1493zM72 -487l106 385l307 -33l-209 -377z" />
    <glyph glyph-name="Lcaron" unicode="&#x13d;" horiz-adv-x="962" 
d="M143 1366h355v-1065h426v-301h-781v1366zM590 963l110 430l308 -54l-213 -413z" />
    <glyph glyph-name="lcaron" unicode="&#x13e;" horiz-adv-x="864" 
d="M113 1493h327v-1493h-327v1493zM508 1004l110 430l308 -54l-213 -413z" />
    <glyph glyph-name="Ldot" unicode="&#x13f;" horiz-adv-x="962" 
d="M143 1366h355v-1065h426v-301h-781v1366zM801 541q-75 0 -131 53q-56 56 -56 129q0 81 56 137q53 53 131 53t131 -53q55 -55 55 -133q0 -81 -55 -133q-56 -53 -131 -53z" />
    <glyph glyph-name="ldot" unicode="&#x140;" horiz-adv-x="923" 
d="M113 1493h327v-1493h-327v1493zM737 561q-75 0 -131 53q-55 55 -55 129q0 83 55 138q53 53 131 53t131 -53q56 -56 56 -133q0 -81 -56 -134t-131 -53z" />
    <glyph glyph-name="Lslash" unicode="&#x141;" horiz-adv-x="1015" 
d="M197 782v584h354v-455l209 133v-282l-209 -133v-328h426v-301h-780v500l-177 -113v283z" />
    <glyph glyph-name="lslash" unicode="&#x142;" horiz-adv-x="716" 
d="M205 920v573h327v-436l164 110v-241l-164 -111v-815h-327v678l-164 -111v242z" />
    <glyph glyph-name="Nacute" unicode="&#x143;" horiz-adv-x="1648" 
d="M498 0h-355v1366h355l653 -836v836h354v-1366h-354l-653 836v-836zM932 1903l207 -150l-316 -278l-151 112z" />
    <glyph glyph-name="nacute" unicode="&#x144;" horiz-adv-x="1198" 
d="M113 0v915h327v-114q102 135 291 135q172 0 270 -98q54 -54 70 -111.5t16 -144.5v-582h-327v463q0 42 -1 63t-10.5 57.5t-29.5 57.5q-37 39 -105 39q-74 0 -120 -43q-24 -23 -39 -63t-15 -82v-492h-327zM743 1493l207 -150l-315 -278l-152 113z" />
    <glyph glyph-name="Ncommaaccent" unicode="&#x145;" horiz-adv-x="1648" 
d="M498 0h-355v1366h355l653 -836v836h354v-1366h-354l-653 836v-836zM573 -508l107 406l307 -33l-209 -397z" />
    <glyph glyph-name="ncommaaccent" unicode="&#x146;" horiz-adv-x="1198" 
d="M113 0v915h327v-114q102 135 291 135q172 0 270 -98q54 -54 70 -111.5t16 -144.5v-582h-327v463q0 42 -1 63t-10.5 57.5t-29.5 57.5q-37 39 -105 39q-74 0 -120 -43q-24 -23 -39 -63t-15 -82v-492h-327zM369 -487l106 385l307 -33l-209 -377z" />
    <glyph glyph-name="Ncaron" unicode="&#x147;" horiz-adv-x="1648" 
d="M498 0h-355v1366h355l653 -836v836h354v-1366h-354l-653 836v-836zM821 1475l-401 301l139 157l262 -200l260 200l146 -157z" />
    <glyph glyph-name="ncaron" unicode="&#x148;" horiz-adv-x="1198" 
d="M113 0v915h327v-114q102 135 291 135q172 0 270 -98q54 -54 70 -111.5t16 -144.5v-582h-327v463q0 42 -1 63t-10.5 57.5t-29.5 57.5q-37 39 -105 39q-74 0 -120 -43q-24 -23 -39 -63t-15 -82v-492h-327zM623 1065l-402 301l139 158l263 -201l260 201l145 -158z" />
    <glyph glyph-name="Omacron" unicode="&#x14c;" horiz-adv-x="1671" 
d="M1589 682q0 -140 -54.5 -274.5t-160.5 -235.5q-103 -99 -243.5 -151t-294.5 -52t-295 52.5t-244 150.5q-106 101 -160.5 235.5t-54.5 274.5q0 141 54.5 276.5t160.5 235.5q103 98 244 150.5t295 52.5t294.5 -52t243.5 -151q106 -100 160.5 -235.5t54.5 -276.5zM836 1053
q-77 0 -150 -27.5t-127 -81.5q-108 -105 -108 -268q0 -150 108 -254q114 -109 277 -109q167 0 274 107q50 50 80.5 118.5t30.5 143.5q0 76 -30.5 145t-80.5 117q-56 53 -128.5 81t-145.5 28zM453 1534v201h770v-201h-770z" />
    <glyph glyph-name="omacron" unicode="&#x14d;" horiz-adv-x="1251" 
d="M627 668q-39 0 -79.5 -16.5t-68.5 -43.5q-63 -60 -63 -149q0 -83 63 -146q61 -61 148 -61q84 0 145 61q64 61 64 146q0 38 -17 78.5t-47 70.5q-28 27 -67.5 43.5t-77.5 16.5zM1176 459q0 -199 -142 -338q-155 -152 -409 -152t-408 152q-141 138 -141 338q0 199 141 336
q155 151 408 151q250 0 409 -151q142 -138 142 -336zM227 1104v201h811v-201h-811z" />
    <glyph glyph-name="Obreve" unicode="&#x14e;" horiz-adv-x="1671" 
d="M1589 682q0 -140 -54.5 -274.5t-160.5 -235.5q-103 -99 -243.5 -151t-294.5 -52t-295 52.5t-244 150.5q-106 101 -160.5 235.5t-54.5 274.5q0 141 54.5 276.5t160.5 235.5q103 98 244 150.5t295 52.5t294.5 -52t243.5 -151q106 -100 160.5 -235.5t54.5 -276.5zM836 1053
q-77 0 -150 -27.5t-127 -81.5q-108 -105 -108 -268q0 -150 108 -254q114 -109 277 -109q167 0 274 107q50 50 80.5 118.5t30.5 143.5q0 76 -30.5 145t-80.5 117q-56 53 -128.5 81t-145.5 28zM981 1796h211q-2 -135 -90 -223q-92 -92 -266 -92q-175 0 -267 92q-88 88 -90 223
h211q6 -53 41 -84q40 -37 105 -37q64 0 104 37q35 31 41 84z" />
    <glyph glyph-name="obreve" unicode="&#x14f;" horiz-adv-x="1251" 
d="M627 668q-39 0 -79.5 -16.5t-68.5 -43.5q-63 -60 -63 -149q0 -83 63 -146q61 -61 148 -61q84 0 145 61q64 61 64 146q0 38 -17 78.5t-47 70.5q-28 27 -67.5 43.5t-77.5 16.5zM1176 459q0 -199 -142 -338q-155 -152 -409 -152t-408 152q-141 138 -141 338q0 199 141 336
q155 151 408 151q250 0 409 -151q142 -138 142 -336zM778 1386h211q-2 -135 -90 -223q-92 -92 -266 -92t-266 92q-89 89 -91 223h211q6 -52 41 -83q40 -37 105 -37q64 0 104 37q35 31 41 83z" />
    <glyph glyph-name="Ohungarumlaut" unicode="&#x150;" horiz-adv-x="1671" 
d="M1589 682q0 -140 -54.5 -274.5t-160.5 -235.5q-103 -99 -243.5 -151t-294.5 -52t-295 52.5t-244 150.5q-106 101 -160.5 235.5t-54.5 274.5q0 141 54.5 276.5t160.5 235.5q103 98 244 150.5t295 52.5t294.5 -52t243.5 -151q106 -100 160.5 -235.5t54.5 -276.5zM836 1053
q-77 0 -150 -27.5t-127 -81.5q-108 -105 -108 -268q0 -150 108 -254q114 -109 277 -109q167 0 274 107q50 50 80.5 118.5t30.5 143.5q0 76 -30.5 145t-80.5 117q-56 53 -128.5 81t-145.5 28zM774 1903l170 -150l-280 -278l-111 112zM1128 1903l172 -150l-280 -278l-113 112z
" />
    <glyph glyph-name="ohungarumlaut" unicode="&#x151;" horiz-adv-x="1251" 
d="M627 668q-39 0 -79.5 -16.5t-68.5 -43.5q-63 -60 -63 -149q0 -83 63 -146q61 -61 148 -61q84 0 145 61q64 61 64 146q0 38 -17 78.5t-47 70.5q-28 27 -67.5 43.5t-77.5 16.5zM1176 459q0 -199 -142 -338q-155 -152 -409 -152t-408 152q-141 138 -141 338q0 199 141 336
q155 151 408 151q250 0 409 -151q142 -138 142 -336zM569 1493l170 -150l-280 -278l-111 113zM924 1493l172 -150l-281 -278l-113 113z" />
    <glyph glyph-name="OE" unicode="&#x152;" horiz-adv-x="2072" 
d="M1991 1366v-303h-412v-225h385v-301h-385v-236h412v-301h-768v152q-78 -88 -174 -132q-109 -51 -252 -51q-157 0 -277.5 47t-224.5 152q-213 215 -213 518q0 134 53 264.5t156 235.5q207 211 518 211q131 0 233 -47q100 -46 181 -127v143h768zM829 1053q-153 0 -264 -107
q-49 -48 -80.5 -119t-31.5 -145q0 -69 27.5 -137.5t80.5 -120.5q53 -53 124 -82t144 -29q72 0 145 29t126 82q106 106 106 266q0 144 -108 252q-111 111 -269 111z" />
    <glyph glyph-name="oe" unicode="&#x153;" horiz-adv-x="1892" 
d="M1487 287h313q-33 -161 -180 -248q-122 -70 -293 -70q-136 0 -227 47q-77 43 -127 113q-76 -83 -160 -121q-87 -39 -211 -39q-247 0 -393 144q-135 132 -135 338q0 215 141 356q45 44 95.5 73.5t103 42.5t95.5 18t93 5q124 0 211 -35q90 -36 160 -106q46 53 125 92
q102 47 217 47q239 0 368 -133q40 -41 66.5 -87t39.5 -101.5t18 -92.5t10 -102l2 -27h-689q3 -40 21 -86.5t41 -68.5q45 -45 139 -45q121 0 156 86zM1139 588h377q-16 61 -62 104q-48 45 -127 45q-71 0 -123 -41q-47 -39 -65 -108zM610 664q-75 0 -139 -60q-59 -59 -59 -143
q0 -95 59 -154q55 -55 135 -55q78 0 133 49q32 29 51 72.5t19 85.5q0 88 -66 151q-56 54 -133 54z" />
    <glyph glyph-name="Racute" unicode="&#x154;" horiz-adv-x="1284" 
d="M143 1366h553q218 0 334 -121q57 -58 87 -140t30 -167q0 -179 -109 -285q-75 -73 -188 -94l428 -559h-440l-340 524v-524h-355v1366zM498 1092v-338h67q114 0 172 55q45 45 45 115t-47 114q-54 54 -170 54h-67zM702 1903l207 -150l-315 -278l-152 112z" />
    <glyph glyph-name="racute" unicode="&#x155;" horiz-adv-x="837" 
d="M113 0v915h327v-149q46 85 129 127q67 37 170 37q3 0 10 -0.5t22.5 -1.5t33.5 -2v-310q-66 33 -141 33q-96 0 -150 -49q-74 -67 -74 -209v-391h-327zM559 1493l207 -150l-315 -278l-152 113z" />
    <glyph glyph-name="Rcommaaccent" unicode="&#x156;" horiz-adv-x="1284" 
d="M143 1366h553q218 0 334 -121q57 -58 87 -140t30 -167q0 -179 -109 -285q-75 -73 -188 -94l428 -559h-440l-340 524v-524h-355v1366zM498 1092v-338h67q114 0 172 55q45 45 45 115t-47 114q-54 54 -170 54h-67zM430 -508l107 406l307 -33l-209 -397z" />
    <glyph glyph-name="rcommaaccent" unicode="&#x157;" horiz-adv-x="837" 
d="M113 0v915h327v-149q46 85 129 127q67 37 170 37q3 0 10 -0.5t22.5 -1.5t33.5 -2v-310q-66 33 -141 33q-96 0 -150 -49q-74 -67 -74 -209v-391h-327zM225 -487l107 385l307 -33l-209 -377z" />
    <glyph glyph-name="Rcaron" unicode="&#x158;" horiz-adv-x="1284" 
d="M143 1366h553q218 0 334 -121q57 -58 87 -140t30 -167q0 -179 -109 -285q-75 -73 -188 -94l428 -559h-440l-340 524v-524h-355v1366zM498 1092v-338h67q114 0 172 55q45 45 45 115t-47 114q-54 54 -170 54h-67zM612 1475l-401 301l139 157l262 -200l260 200l146 -157z
" />
    <glyph glyph-name="rcaron" unicode="&#x159;" horiz-adv-x="837" 
d="M113 0v915h327v-149q46 85 129 127q67 37 170 37q3 0 10 -0.5t22.5 -1.5t33.5 -2v-310q-66 33 -141 33q-96 0 -150 -49q-74 -67 -74 -209v-391h-327zM440 1065l-401 301l139 158l262 -201l260 201l146 -158z" />
    <glyph glyph-name="Sacute" unicode="&#x15a;" horiz-adv-x="1169" 
d="M82 123l151 287q64 -60 146 -100t168 -40q94 0 137 47q35 35 35 86q0 48 -39 82q-6 5 -12 9.5t-14.5 9t-14.5 8t-18 8t-18.5 6.5t-22 7t-22 7.5t-26.5 8.5t-28 8l-92 29q-137 43 -197 110q-78 85 -78 242q0 205 125 330q129 129 350 129q100 0 212 -29.5t210 -81.5
l-141 -276q-116 92 -234 92q-73 0 -116 -41q-35 -35 -35 -74q0 -38 18 -61q29 -35 119 -62l109 -33q55 -17 88.5 -30t79 -41t79.5 -64q50 -53 69.5 -110.5t19.5 -132.5q0 -215 -129 -344q-81 -81 -180 -110.5t-224 -29.5q-146 0 -268 45q-100 35 -207 109zM713 1903
l207 -150l-316 -278l-151 112z" />
    <glyph glyph-name="sacute" unicode="&#x15b;" horiz-adv-x="909" 
d="M55 76l117 227q61 -45 131 -67q67 -23 127 -23q56 0 84 25q16 16 16 43t-16 41q-17 15 -86 32l-86 21q-108 24 -160 80q-59 62 -59 157q0 65 23.5 124t62.5 100q52 53 138.5 81.5t189.5 28.5q156 0 292 -59l-110 -209q-101 45 -172 45q-46 0 -76 -18q-29 -16 -29 -46
q0 -35 39 -51q17 -6 51.5 -13t57.5 -13l59 -17q34 -9 75 -30.5t60 -40.5q33 -32 51.5 -81.5t18.5 -101.5q0 -139 -92 -227q-115 -115 -338 -115q-193 0 -369 107zM569 1493l207 -150l-315 -278l-152 113z" />
    <glyph glyph-name="Scircumflex" unicode="&#x15c;" horiz-adv-x="1169" 
d="M82 123l151 287q64 -60 146 -100t168 -40q94 0 137 47q35 35 35 86q0 48 -39 82q-6 5 -12 9.5t-14.5 9t-14.5 8t-18 8t-18.5 6.5t-22 7t-22 7.5t-26.5 8.5t-28 8l-92 29q-137 43 -197 110q-78 85 -78 242q0 205 125 330q129 129 350 129q100 0 212 -29.5t210 -81.5
l-141 -276q-116 92 -234 92q-73 0 -116 -41q-35 -35 -35 -74q0 -38 18 -61q29 -35 119 -62l109 -33q55 -17 88.5 -30t79 -41t79.5 -64q50 -53 69.5 -110.5t19.5 -132.5q0 -215 -129 -344q-81 -81 -180 -110.5t-224 -29.5q-146 0 -268 45q-100 35 -207 109zM350 1475
l-139 157l401 301l406 -301l-146 -157l-260 200z" />
    <glyph glyph-name="scircumflex" unicode="&#x15d;" horiz-adv-x="909" 
d="M55 76l117 227q61 -45 131 -67q67 -23 127 -23q56 0 84 25q16 16 16 43t-16 41q-17 15 -86 32l-86 21q-108 24 -160 80q-59 62 -59 157q0 65 23.5 124t62.5 100q52 53 138.5 81.5t189.5 28.5q156 0 292 -59l-110 -209q-101 45 -172 45q-46 0 -76 -18q-29 -16 -29 -46
q0 -35 39 -51q17 -6 51.5 -13t57.5 -13l59 -17q34 -9 75 -30.5t60 -40.5q33 -32 51.5 -81.5t18.5 -101.5q0 -139 -92 -227q-115 -115 -338 -115q-193 0 -369 107zM268 1065l-139 158l401 301l406 -301l-145 -158l-261 201z" />
    <glyph glyph-name="Scedilla" unicode="&#x15e;" horiz-adv-x="1169" 
d="M82 123l151 287q64 -60 146 -100t168 -40q94 0 137 47q35 35 35 86q0 48 -39 82q-6 5 -12 9.5t-14.5 9t-14.5 8t-18 8t-18.5 6.5t-22 7t-22 7.5t-26.5 8.5t-28 8l-92 29q-137 43 -197 110q-78 85 -78 242q0 205 125 330q129 129 350 129q100 0 212 -29.5t210 -81.5
l-141 -276q-116 92 -234 92q-73 0 -116 -41q-35 -35 -35 -74q0 -38 18 -61q29 -35 119 -62l109 -33q55 -17 88.5 -30t79 -41t79.5 -64q50 -53 69.5 -110.5t19.5 -132.5q0 -215 -129 -344q-81 -81 -180 -110.5t-224 -29.5q-146 0 -268 45q-100 35 -207 109zM537 -94l229 -90
l-238 -299l-188 82z" />
    <glyph glyph-name="scedilla" unicode="&#x15f;" horiz-adv-x="909" 
d="M55 76l117 227q61 -45 131 -67q67 -23 127 -23q56 0 84 25q16 16 16 43t-16 41q-17 15 -86 32l-86 21q-108 24 -160 80q-59 62 -59 157q0 65 23.5 124t62.5 100q52 53 138.5 81.5t189.5 28.5q156 0 292 -59l-110 -209q-101 45 -172 45q-46 0 -76 -18q-29 -16 -29 -46
q0 -35 39 -51q17 -6 51.5 -13t57.5 -13l59 -17q34 -9 75 -30.5t60 -40.5q33 -32 51.5 -81.5t18.5 -101.5q0 -139 -92 -227q-115 -115 -338 -115q-193 0 -369 107zM426 -94l217 -90l-254 -299l-172 82z" />
    <glyph glyph-name="Scaron" unicode="&#x160;" horiz-adv-x="1169" 
d="M82 123l151 287q64 -60 146 -100t168 -40q94 0 137 47q35 35 35 86q0 48 -39 82q-6 5 -12 9.5t-14.5 9t-14.5 8t-18 8t-18.5 6.5t-22 7t-22 7.5t-26.5 8.5t-28 8l-92 29q-137 43 -197 110q-78 85 -78 242q0 205 125 330q129 129 350 129q100 0 212 -29.5t210 -81.5
l-141 -276q-116 92 -234 92q-73 0 -116 -41q-35 -35 -35 -74q0 -38 18 -61q29 -35 119 -62l109 -33q55 -17 88.5 -30t79 -41t79.5 -64q50 -53 69.5 -110.5t19.5 -132.5q0 -215 -129 -344q-81 -81 -180 -110.5t-224 -29.5q-146 0 -268 45q-100 35 -207 109zM612 1475
l-401 301l139 157l262 -200l260 200l146 -157z" />
    <glyph glyph-name="scaron" unicode="&#x161;" horiz-adv-x="909" 
d="M55 76l117 227q61 -45 131 -67q67 -23 127 -23q56 0 84 25q16 16 16 43t-16 41q-17 15 -86 32l-86 21q-108 24 -160 80q-59 62 -59 157q0 65 23.5 124t62.5 100q52 53 138.5 81.5t189.5 28.5q156 0 292 -59l-110 -209q-101 45 -172 45q-46 0 -76 -18q-29 -16 -29 -46
q0 -35 39 -51q17 -6 51.5 -13t57.5 -13l59 -17q34 -9 75 -30.5t60 -40.5q33 -32 51.5 -81.5t18.5 -101.5q0 -139 -92 -227q-115 -115 -338 -115q-193 0 -369 107zM530 1065l-401 301l139 158l262 -201l261 201l145 -158z" />
    <glyph glyph-name="Tcedilla" unicode="&#x162;" horiz-adv-x="964" 
d="M950 1065h-291v-1065h-354v1065h-291v301h936v-301zM434 -94l230 -90l-238 -299l-188 82z" />
    <glyph glyph-name="tcedilla" unicode="&#x163;" horiz-adv-x="671" 
d="M662 647h-187v-647h-328v647h-104v268h104v302h328v-302h187v-268zM262 -94l217 -90l-254 -299l-172 82z" />
    <glyph glyph-name="Tcaron" unicode="&#x164;" horiz-adv-x="964" 
d="M659 1065h291v301h-936v-301h291v-1065h354v1065zM481 1475l-401 301l139 157l262 -200l260 200l146 -157z" />
    <glyph glyph-name="tcaron" unicode="&#x165;" horiz-adv-x="905" 
d="M662 647h-187v-647h-328v647h-104v268h104v302h328v-302h187v-268zM549 1004l110 430l308 -54l-213 -413z" />
    <glyph glyph-name="Utilde" unicode="&#x168;" horiz-adv-x="1476" 
d="M143 1366h355v-809q0 -30 1.5 -49.5t7.5 -51t21 -59.5t39 -51q31 -29 76.5 -47t91.5 -18q45 0 89.5 16t74.5 43q24 21 40 47.5t23.5 47.5t11.5 54.5t4.5 49t0.5 49.5v778h354v-784q0 -67 -3.5 -111t-17.5 -105t-46.5 -117t-85.5 -110q-167 -170 -451 -170
q-153 0 -269 45.5t-184 118.5q-80 87 -106.5 199t-26.5 250v784zM944 1776l158 -95q-36 -90 -90 -141q-59 -59 -148 -59q-54 0 -119 30l-61 31q-49 25 -74 25t-46.5 -21.5t-31.5 -64.5l-159 94q29 89 82 139q62 58 143 58q53 0 123 -29l59 -27q68 -30 88 -30q50 0 76 90z
" />
    <glyph glyph-name="utilde" unicode="&#x169;" horiz-adv-x="1208" 
d="M113 915h327v-512q0 -89 49 -133q39 -34 115 -34q77 0 117 38q47 47 47 129v512h328v-571q0 -74 -16.5 -131.5t-71.5 -114.5q-76 -78 -175.5 -103.5t-220.5 -25.5q-60 0 -108.5 4.5t-106.5 17t-108.5 40t-89.5 69.5q-86 91 -86 244v571zM813 1366l158 -94
q-37 -92 -90 -142q-59 -59 -148 -59q-52 0 -119 31l-61 31q-47 24 -74 24q-25 0 -46.5 -21.5t-31.5 -64.5l-159 94q30 91 82 140q60 57 143 57q53 0 123 -29l59 -26q7 -3 22 -10t20.5 -9t15.5 -6t16.5 -5t13.5 -1q50 0 76 90z" />
    <glyph glyph-name="Umacron" unicode="&#x16a;" horiz-adv-x="1476" 
d="M143 1366h355v-809q0 -30 1.5 -49.5t7.5 -51t21 -59.5t39 -51q31 -29 76.5 -47t91.5 -18q45 0 89.5 16t74.5 43q24 21 40 47.5t23.5 47.5t11.5 54.5t4.5 49t0.5 49.5v778h354v-784q0 -67 -3.5 -111t-17.5 -105t-46.5 -117t-85.5 -110q-167 -170 -451 -170
q-153 0 -269 45.5t-184 118.5q-80 87 -106.5 199t-26.5 250v784zM352 1534v201h770v-201h-770z" />
    <glyph glyph-name="umacron" unicode="&#x16b;" horiz-adv-x="1208" 
d="M113 915h327v-512q0 -89 49 -133q39 -34 115 -34q77 0 117 38q47 47 47 129v512h328v-571q0 -74 -16.5 -131.5t-71.5 -114.5q-76 -78 -175.5 -103.5t-220.5 -25.5q-60 0 -108.5 4.5t-106.5 17t-108.5 40t-89.5 69.5q-86 91 -86 244v571zM201 1104v201h811v-201h-811z" />
    <glyph glyph-name="Ubreve" unicode="&#x16c;" horiz-adv-x="1476" 
d="M143 1366h355v-809q0 -30 1.5 -49.5t7.5 -51t21 -59.5t39 -51q31 -29 76.5 -47t91.5 -18q45 0 89.5 16t74.5 43q24 21 40 47.5t23.5 47.5t11.5 54.5t4.5 49t0.5 49.5v778h354v-784q0 -67 -3.5 -111t-17.5 -105t-46.5 -117t-85.5 -110q-167 -170 -451 -170
q-153 0 -269 45.5t-184 118.5q-80 87 -106.5 199t-26.5 250v784zM883 1796h211q-2 -135 -90 -223q-92 -92 -267 -92q-174 0 -266 92q-88 88 -90 223h211q6 -53 41 -84q40 -37 104 -37q65 0 105 37q35 31 41 84z" />
    <glyph glyph-name="ubreve" unicode="&#x16d;" horiz-adv-x="1208" 
d="M113 915h327v-512q0 -89 49 -133q39 -34 115 -34q77 0 117 38q47 47 47 129v512h328v-571q0 -74 -16.5 -131.5t-71.5 -114.5q-76 -78 -175.5 -103.5t-220.5 -25.5q-60 0 -108.5 4.5t-106.5 17t-108.5 40t-89.5 69.5q-86 91 -86 244v571zM750 1386h211q-2 -134 -91 -223
q-92 -92 -266 -92t-266 92q-88 88 -90 223h211q6 -52 41 -83q40 -37 104 -37q65 0 105 37q35 31 41 83z" />
    <glyph glyph-name="Uring" unicode="&#x16e;" horiz-adv-x="1476" 
d="M143 1366h355v-809q0 -30 1.5 -49.5t7.5 -51t21 -59.5t39 -51q31 -29 76.5 -47t91.5 -18q45 0 89.5 16t74.5 43q24 21 40 47.5t23.5 47.5t11.5 54.5t4.5 49t0.5 49.5v778h354v-784q0 -67 -3.5 -111t-17.5 -105t-46.5 -117t-85.5 -110q-167 -170 -451 -170
q-153 0 -269 45.5t-184 118.5q-80 87 -106.5 199t-26.5 250v784zM1018 1692q0 -83 -53 -136q-13 -13 -32.5 -26.5t-74.5 -31t-121 -17.5q-152 0 -227 75q-53 53 -53 136q0 84 53 137q76 76 227 76q152 0 228 -76q53 -53 53 -137zM737 1776q-57 0 -88 -31q-20 -20 -20 -51
q0 -32 20 -52q30 -30 88 -30t88 30q21 21 21 52q0 30 -21 51q-31 31 -88 31z" />
    <glyph glyph-name="uring" unicode="&#x16f;" horiz-adv-x="1208" 
d="M113 915h327v-512q0 -89 49 -133q39 -34 115 -34q77 0 117 38q47 47 47 129v512h328v-571q0 -74 -16.5 -131.5t-71.5 -114.5q-76 -78 -175.5 -103.5t-220.5 -25.5q-60 0 -108.5 4.5t-106.5 17t-108.5 40t-89.5 69.5q-86 91 -86 244v571zM887 1282q0 -82 -53 -135
q-76 -76 -228 -76q-151 0 -227 76q-53 53 -53 135q0 84 53 137q76 76 227 76q152 0 228 -76q53 -53 53 -137zM606 1366q-57 0 -88 -31q-20 -20 -20 -51t20 -51q31 -31 88 -31t88 31q21 21 21 51t-21 51q-31 31 -88 31z" />
    <glyph glyph-name="Uhungarumlaut" unicode="&#x170;" horiz-adv-x="1476" 
d="M143 1366h355v-809q0 -30 1.5 -49.5t7.5 -51t21 -59.5t39 -51q31 -29 76.5 -47t91.5 -18q45 0 89.5 16t74.5 43q24 21 40 47.5t23.5 47.5t11.5 54.5t4.5 49t0.5 49.5v778h354v-784q0 -67 -3.5 -111t-17.5 -105t-46.5 -117t-85.5 -110q-167 -170 -451 -170
q-153 0 -269 45.5t-184 118.5q-80 87 -106.5 199t-26.5 250v784zM674 1903l170 -150l-281 -278l-110 112zM1028 1903l172 -150l-280 -278l-113 112z" />
    <glyph glyph-name="uhungarumlaut" unicode="&#x171;" horiz-adv-x="1208" 
d="M113 915h327v-512q0 -89 49 -133q39 -34 115 -34q77 0 117 38q47 47 47 129v512h328v-571q0 -74 -16.5 -131.5t-71.5 -114.5q-76 -78 -175.5 -103.5t-220.5 -25.5q-60 0 -108.5 4.5t-106.5 17t-108.5 40t-89.5 69.5q-86 91 -86 244v571zM469 1493l170 -150l-281 -278
l-110 113zM823 1493l172 -150l-280 -278l-113 113z" />
    <glyph glyph-name="Uogonek" unicode="&#x172;" horiz-adv-x="1476" 
d="M143 1366h355v-809q0 -30 1.5 -49.5t7.5 -51t21 -59.5t39 -51q29 -29 76 -47t94 -18q97 0 162 59q37 33 56 82t21.5 81t2.5 85v778h354v-827q0 -62 -2 -97.5t-19 -98t-50 -112.5q-65 -94 -203 -178q-14 -9 -53 -30.5t-65.5 -38.5t-47.5 -35q-57 -46 -57 -105
q0 -28 20 -45q18 -18 53 -18q54 0 101 37l-45 -176q-67 -37 -136 -37q-95 0 -149 57q-43 43 -43 113q0 68 43 125q21 28 70 71q-163 0 -283.5 44t-190.5 118q-80 87 -106.5 199t-26.5 250v784z" />
    <glyph glyph-name="uogonek" unicode="&#x173;" horiz-adv-x="1208" 
d="M113 915h327v-512q0 -89 49 -133q39 -34 115 -34q77 0 117 38q47 47 47 129v512h328v-542q0 -88 -16 -149.5t-72 -119.5q-46 -48 -134 -89.5t-122 -67.5q-52 -39 -52 -86q0 -33 23 -56q22 -22 59 -22q47 0 101 37l-43 -174q-52 -35 -135 -35q-99 0 -148 55
q-41 48 -41 105q0 60 35 116q31 51 76 82q-18 -2 -56 -2q-108 0 -209 33t-163 100q-86 93 -86 244v571z" />
    <glyph glyph-name="Ydieresis" unicode="&#x178;" horiz-adv-x="1310" 
d="M469 0v655l-494 711h424l258 -373l248 373h430l-510 -711v-655h-356zM887 1481q-73 0 -125 55q-51 57 -51 123q0 64 53 125q53 53 123 53q72 0 123 -51q55 -55 55 -127q0 -69 -53 -125q-53 -53 -125 -53zM422 1481q-73 0 -125 55q-51 57 -51 123q0 64 53 125
q53 53 123 53q72 0 123 -51q55 -55 55 -127q0 -69 -53 -125q-53 -53 -125 -53z" />
    <glyph glyph-name="Zacute" unicode="&#x179;" horiz-adv-x="1292" 
d="M1266 1366l-643 -1065h573v-301h-1169l647 1065h-537v301h1129zM764 1903l207 -150l-316 -278l-151 112z" />
    <glyph glyph-name="zacute" unicode="&#x17a;" horiz-adv-x="1058" 
d="M1018 915l-428 -647h383v-268h-932l432 647h-369v268h914zM651 1493l207 -150l-315 -278l-152 113z" />
    <glyph glyph-name="Zdotaccent" unicode="&#x17b;" horiz-adv-x="1292" 
d="M1266 1366l-643 -1065h573v-301h-1169l647 1065h-537v301h1129zM686 1481q-75 0 -131 53q-55 55 -55 129q0 82 55 137q53 53 131 53t131 -53q55 -55 55 -133q0 -81 -55 -133q-56 -53 -131 -53z" />
    <glyph glyph-name="zdotaccent" unicode="&#x17c;" horiz-adv-x="1058" 
d="M1018 915l-428 -647h383v-268h-932l432 647h-369v268h914zM553 1071q-75 0 -131 53q-55 55 -55 129q0 83 55 138q53 53 131 53t131 -53q55 -55 55 -134q0 -81 -55 -133q-56 -53 -131 -53z" />
    <glyph glyph-name="Zcaron" unicode="&#x17d;" horiz-adv-x="1292" 
d="M1266 1366l-643 -1065h573v-301h-1169l647 1065h-537v301h1129zM684 1475l-401 301l139 157l262 -200l260 200l146 -157z" />
    <glyph glyph-name="zcaron" unicode="&#x17e;" horiz-adv-x="1058" 
d="M1018 915l-428 -647h383v-268h-932l432 647h-369v268h914zM551 1065l-401 301l139 158l262 -201l260 201l145 -158z" />
    <glyph glyph-name="uni018F" unicode="&#x18f;" horiz-adv-x="1572" 
d="M481 909l-366 72q80 193 256 305q175 111 405 111q167 0 299.5 -55.5t218.5 -143.5q91 -93 144 -223.5t53 -282.5q0 -323 -195 -522q-61 -63 -131 -105.5t-141.5 -62t-129 -26.5t-124.5 -7q-65 0 -121 7t-120.5 25t-127 55.5t-116.5 93.5q-203 208 -203 575v37h1051
q-19 117 -101 199q-103 100 -268 100q-92 0 -172 -45q-71 -39 -111 -107zM1122 532h-671q13 -103 86 -170q84 -79 235 -79q145 0 238 73q88 71 112 176z" />
    <glyph glyph-name="florin" unicode="&#x192;" horiz-adv-x="1228" 
d="M393 231l88 488h-155l32 196h160l43 228q33 174 119 262q108 111 299 111q118 0 219 -52l-53 -284q-56 45 -127 45q-60 0 -94 -37q-31 -35 -50 -139l-24 -134h199l-37 -196h-199l-94 -526q-57 -319 -178 -443q-133 -135 -389 -135q-99 0 -177 18l54 299q52 -18 116 -18
q98 0 146 45q34 30 57.5 94.5t44.5 177.5z" />
    <glyph glyph-name="uni01CF" unicode="&#x1cf;" horiz-adv-x="641" 
d="M143 1366h355v-1366h-355v1366zM319 1475l-401 301l139 157l262 -200l261 200l145 -157z" />
    <glyph glyph-name="uni01D0" unicode="&#x1d0;" horiz-adv-x="546" 
d="M109 915h327v-915h-327v915zM270 1065l-401 301l139 158l262 -201l260 201l146 -158z" />
    <glyph glyph-name="uni01DD" unicode="&#x1dd;" horiz-adv-x="1159" 
d="M74 473v55h682q-3 41 -21.5 79t-46.5 61q-54 45 -139 45q-58 0 -109 -29q-39 -22 -63 -66l-279 58q57 125 174 194q118 72 287 72q254 0 397 -147q127 -131 127 -336q0 -108 -36.5 -201t-100.5 -156q-137 -133 -375 -133q-218 0 -352 125q-145 138 -145 379zM745 346
h-370q5 -69 53 -117q51 -51 137 -51q84 0 131 51q43 43 49 117z" />
    <glyph glyph-name="Gcaron" unicode="&#x1e6;" horiz-adv-x="1585" 
d="M799 498v276h704q0 -210 -50 -356.5t-169 -257.5q-185 -172 -481 -172q-326 0 -524 202q-86 86 -141.5 211.5t-55.5 282.5q0 156 55.5 288t149.5 224q201 201 530 201q217 0 369 -92q77 -48 141.5 -123.5t102.5 -157.5l-338 -139q-32 82 -99 137q-82 68 -190 68
q-139 0 -234 -95q-57 -57 -87.5 -143t-30.5 -170q0 -178 108 -295q98 -104 250 -104q122 0 197 63q69 56 84 152h-291zM827 1475l-401 301l139 157l262 -200l260 200l146 -157z" />
    <glyph glyph-name="gcaron" unicode="&#x1e7;" horiz-adv-x="1255" 
d="M815 915h328v-858q0 -123 -24 -211t-101 -168q-145 -147 -404 -147q-269 0 -428 162q-85 88 -100 190h365q30 -94 153 -94q93 0 146 51q65 60 65 170v92q-68 -73 -135 -96.5t-139 -23.5q-213 0 -338 129q-61 62 -94 150t-33 183q0 105 36.5 199.5t98.5 159.5
q65 68 152 103.5t180 35.5q165 0 272 -121v94zM621 670q-84 0 -146 -62q-63 -66 -63 -147q0 -87 63 -150q59 -59 148 -59q86 0 147 61q29 29 45 70t16 78q0 36 -18 78t-47 71q-60 60 -145 60zM633 1065l-402 301l140 158l262 -201l260 201l145 -158z" />
    <glyph glyph-name="AEacute" unicode="&#x1fc;" horiz-adv-x="1892" 
d="M1055 0l-88 240h-494l-86 -240h-373l527 1366h835l109 -301h-449l84 -227h449l112 -301h-450l90 -236h446l111 -301h-823zM571 510h299l-145 403zM1055 1903l207 -150l-316 -278l-151 112z" />
    <glyph glyph-name="aeacute" unicode="&#x1fd;" horiz-adv-x="1757" 
d="M1681 406h-686q0 -96 62 -158q51 -51 147 -51q68 0 103 26q29 19 47 60h313q-45 -144 -166 -232q-115 -82 -301 -82q-144 0 -244 54q-84 45 -125 124q-66 -83 -163 -129q-106 -45 -213 -45q-94 0 -172.5 28.5t-128.5 78.5q-78 78 -78 188q0 119 80 199q104 104 303 104
q127 0 233 -47v23q0 69 -43 112q-54 54 -176 54q-120 0 -254 -51v243q150 43 273 43q114 0 190 -35q96 -44 149 -127q58 75 140 117q94 45 213 45q114 0 209 -35.5t155 -95.5q133 -133 133 -385v-26zM1004 592h376q-13 62 -55 98q-57 51 -137 51q-70 0 -121 -45
q-45 -42 -63 -104zM541 389q-79 0 -117 -29q-33 -24 -33 -69q0 -44 39 -70q42 -31 109 -31q54 0 106 25q55 28 55 76q0 21 -14 42t-35 32q-46 24 -110 24zM987 1493l207 -150l-315 -278l-152 113z" />
    <glyph glyph-name="Scommaaccent" unicode="&#x218;" horiz-adv-x="1169" 
d="M82 123l151 287q64 -60 146 -100t168 -40q94 0 137 47q35 35 35 86q0 48 -39 82q-6 5 -12 9.5t-14.5 9t-14.5 8t-18 8t-18.5 6.5t-22 7t-22 7.5t-26.5 8.5t-28 8l-92 29q-137 43 -197 110q-78 85 -78 242q0 205 125 330q129 129 350 129q100 0 212 -29.5t210 -81.5
l-141 -276q-116 92 -234 92q-73 0 -116 -41q-35 -35 -35 -74q0 -38 18 -61q29 -35 119 -62l109 -33q55 -17 88.5 -30t79 -41t79.5 -64q50 -53 69.5 -110.5t19.5 -132.5q0 -215 -129 -344q-81 -81 -180 -110.5t-224 -29.5q-146 0 -268 45q-100 35 -207 109zM348 -508l107 406
l307 -33l-209 -397z" />
    <glyph glyph-name="scommaaccent" unicode="&#x219;" horiz-adv-x="909" 
d="M55 76l117 227q61 -45 131 -67q67 -23 127 -23q56 0 84 25q16 16 16 43t-16 41q-17 15 -86 32l-86 21q-108 24 -160 80q-59 62 -59 157q0 65 23.5 124t62.5 100q52 53 138.5 81.5t189.5 28.5q156 0 292 -59l-110 -209q-101 45 -172 45q-46 0 -76 -18q-29 -16 -29 -46
q0 -35 39 -51q17 -6 51.5 -13t57.5 -13l59 -17q34 -9 75 -30.5t60 -40.5q33 -32 51.5 -81.5t18.5 -101.5q0 -139 -92 -227q-115 -115 -338 -115q-193 0 -369 107zM225 -487l107 385l307 -33l-209 -377z" />
    <glyph glyph-name="Tcommaaccent" unicode="&#x21a;" horiz-adv-x="964" 
d="M950 1065h-291v-1065h-354v1065h-291v301h936v-301zM225 -508l107 406l307 -33l-209 -397z" />
    <glyph glyph-name="tcommaaccent" unicode="&#x21b;" horiz-adv-x="671" 
d="M662 647h-187v-647h-328v647h-104v268h104v302h328v-302h187v-268zM53 -487l107 385l307 -33l-209 -377z" />
    <glyph glyph-name="uni0228" unicode="&#x228;" horiz-adv-x="1001" 
d="M920 1366v-301h-422v-227h399v-301h-399v-236h422v-301h-777v1366h777zM485 -94l230 -90l-238 -299l-188 82z" />
    <glyph glyph-name="uni0229" unicode="&#x229;" horiz-adv-x="1159" 
d="M1083 432v-35h-682q0 -40 15 -82.5t43 -70.5q45 -45 135 -45q63 0 106 24q40 24 58 62h313q-31 -112 -110 -189q-131 -127 -373 -127q-239 0 -379 140q-135 135 -135 346q0 220 137 354q137 133 375 133q218 0 352 -125q145 -138 145 -385zM412 586h370q-13 58 -53 98
q-49 49 -135 49q-84 0 -133 -49q-41 -45 -49 -98zM569 -94l217 -90l-254 -299l-172 82z" />
    <glyph glyph-name="uni0237" unicode="&#x237;" horiz-adv-x="546" 
d="M109 915h327v-1384h-327v1384z" />
    <glyph glyph-name="uni0259" unicode="&#x259;" horiz-adv-x="1159" 
d="M74 473v55h682q-3 41 -21.5 79t-46.5 61q-54 45 -139 45q-58 0 -109 -29q-39 -22 -63 -66l-279 58q57 125 174 194q118 72 287 72q254 0 397 -147q127 -131 127 -336q0 -108 -36.5 -201t-100.5 -156q-137 -133 -375 -133q-218 0 -352 125q-145 138 -145 379zM745 346
h-370q5 -69 53 -117q51 -51 137 -51q84 0 131 51q43 43 49 117z" />
    <glyph glyph-name="afii57929" unicode="&#x2bc;" 
d="M303 1004l111 430l307 -54l-213 -413z" />
    <glyph glyph-name="circumflex" unicode="&#x2c6;" 
d="M248 1065l-139 158l401 301l405 -301l-145 -158l-260 201z" />
    <glyph glyph-name="caron" unicode="&#x2c7;" 
d="M510 1065l-401 301l139 158l262 -201l260 201l145 -158z" />
    <glyph glyph-name="uni02C9" unicode="&#x2c9;" 
d="M106 1104v201h812v-201h-812z" />
    <glyph glyph-name="breve" unicode="&#x2d8;" 
d="M657 1386h211q-2 -135 -90 -223q-92 -92 -266 -92t-266 92q-88 88 -90 223h211q6 -52 41 -83q40 -37 104 -37t104 37q35 31 41 83z" />
    <glyph glyph-name="dotaccent" unicode="&#x2d9;" 
d="M512 1071q-75 0 -131 53q-55 55 -55 129q0 83 55 138q53 53 131 53t131 -53q55 -55 55 -134q0 -81 -55 -133q-56 -53 -131 -53z" />
    <glyph glyph-name="ring" unicode="&#x2da;" 
d="M793 1282q0 -81 -54 -135q-76 -76 -227 -76t-227 76q-54 54 -54 135q0 83 54 137q76 76 227 76t227 -76q54 -54 54 -137zM512 1366q-57 0 -88 -31q-21 -21 -21 -51t21 -51q31 -31 88 -31t88 31q21 21 21 51t-21 51q-31 31 -88 31z" />
    <glyph glyph-name="ogonek" unicode="&#x2db;" 
d="M739 -182l-45 -176q-64 -37 -135 -37q-95 0 -149 57q-43 49 -43 107q0 66 41 125q48 68 114 106h152q-53 -34 -80 -61q-39 -39 -39 -80q0 -33 23 -56q22 -22 59 -22q48 0 102 37z" />
    <glyph glyph-name="tilde" unicode="&#x2dc;" 
d="M719 1366l158 -94q-14 -36 -40 -77t-51 -65q-59 -59 -147 -59q-52 0 -119 31l-61 31q-47 24 -74 24q-25 0 -46.5 -21.5t-31.5 -64.5l-160 94q30 91 82 140q60 57 144 57q53 0 123 -29l59 -26q7 -3 22 -10t20.5 -9t15.5 -6t16.5 -5t13.5 -1q50 0 76 90z" />
    <glyph glyph-name="hungarumlaut" unicode="&#x2dd;" 
d="M449 1493l169 -150l-280 -278l-111 113zM803 1493l172 -150l-281 -278l-112 113z" />
    <glyph glyph-name="acutecomb" unicode="&#x301;" horiz-adv-x="4" 
d="M-459 1493l207 -150l-315 -278l-152 113z" />
    <glyph glyph-name="uni0394" unicode="&#x394;" horiz-adv-x="1366" 
d="M1331 0h-1298l502 1366h288zM680 1040l-266 -798h532z" />
    <glyph glyph-name="uni0394" unicode="&#x2206;" horiz-adv-x="1366" 
d="M1331 0h-1298l502 1366h288zM680 1040l-266 -798h532z" />
    <glyph glyph-name="uni03A9" unicode="&#x3a9;" horiz-adv-x="1366" 
d="M756 0v213q125 53 200 188q72 138 72 320q0 236 -133 356q-92 82 -213 82t-213 -82q-133 -120 -133 -356q0 -182 72 -320q75 -135 200 -188v-213h-551v240h277q-75 41 -139 108q-138 148 -138 402q0 135 48 257.5t133 211.5q78 80 192.5 130t251.5 50t251.5 -50
t192.5 -130q85 -89 133 -211.5t48 -257.5q0 -254 -138 -402q-64 -67 -139 -108h277v-240h-551z" />
    <glyph glyph-name="uni03A9" unicode="&#x2126;" horiz-adv-x="1366" 
d="M756 0v213q125 53 200 188q72 138 72 320q0 236 -133 356q-92 82 -213 82t-213 -82q-133 -120 -133 -356q0 -182 72 -320q75 -135 200 -188v-213h-551v240h277q-75 41 -139 108q-138 148 -138 402q0 135 48 257.5t133 211.5q78 80 192.5 130t251.5 50t251.5 -50
t192.5 -130q85 -89 133 -211.5t48 -257.5q0 -254 -138 -402q-64 -67 -139 -108h277v-240h-551z" />
    <glyph glyph-name="pi" unicode="&#x3c0;" horiz-adv-x="1398" 
d="M561 0h-328v657h-155v258h1243v-258h-156v-657h-327v657h-277v-657z" />
    <glyph glyph-name="afii10023" unicode="&#x401;" horiz-adv-x="1001" 
d="M920 1366v-301h-422v-227h399v-301h-399v-236h422v-301h-777v1366h777zM582 1632q0 68 48 116t115 48t115.5 -48t48.5 -116t-48.5 -116t-115.5 -48t-115 48t-48 116zM156 1632q0 68 48 116t115 48t115.5 -48t48.5 -116t-48.5 -116t-115.5 -48t-115 48t-48 116z" />
    <glyph glyph-name="afii10051" unicode="&#x402;" horiz-adv-x="1503" 
d="M328 0v1065h-308v301h1100v-301h-436v-270q137 47 260 47q173 0 283 -62q190 -106 190 -364q0 -134 -48 -220.5t-118 -132.5q-58 -37 -145.5 -56t-173.5 -19q-43 0 -117 12v270q43 -12 90 -12q60 0 99 29q45 33 45 119q0 84 -68 120q-41 21 -113 21q-90 0 -184 -47v-500
h-356z" />
    <glyph glyph-name="afii10052" unicode="&#x403;" horiz-adv-x="1009" 
d="M942 1366v-301h-444v-1065h-355v1366h799zM641 1903l207 -150l-316 -278l-151 112z" />
    <glyph glyph-name="afii10053" unicode="&#x404;" horiz-adv-x="1265" 
d="M1163 426v-354q-89 -49 -153 -68q-109 -35 -238 -35q-146 0 -265.5 42.5t-219.5 144.5q-99 100 -152 238t-53 290q0 158 50 291.5t140 226.5q186 193 490 193q197 0 401 -101v-370q-58 64 -137 108q-96 51 -217 51q-151 0 -240 -71q-81 -67 -104 -178h508v-275h-518
q23 -124 112 -199q90 -75 242 -75q124 0 217 45q80 39 137 96z" />
    <glyph glyph-name="afii10054" unicode="&#x405;" horiz-adv-x="1169" 
d="M82 123l151 287q64 -60 146 -100t168 -40q94 0 137 47q35 35 35 86q0 48 -39 82q-6 5 -12 9.5t-14.5 9t-14.5 8t-18 8t-18.5 6.5t-22 7t-22 7.5t-26.5 8.5t-28 8l-92 29q-137 43 -197 110q-78 85 -78 242q0 205 125 330q129 129 350 129q100 0 212 -29.5t210 -81.5
l-141 -276q-116 92 -234 92q-73 0 -116 -41q-35 -35 -35 -74q0 -38 18 -61q29 -35 119 -62l109 -33q55 -17 88.5 -30t79 -41t79.5 -64q50 -53 69.5 -110.5t19.5 -132.5q0 -215 -129 -344q-81 -81 -180 -110.5t-224 -29.5q-146 0 -268 45q-100 35 -207 109z" />
    <glyph glyph-name="afii10055" unicode="&#x406;" horiz-adv-x="641" 
d="M143 1366h355v-1366h-355v1366z" />
    <glyph glyph-name="afii10056" unicode="&#x407;" horiz-adv-x="729" 
d="M186 1366h355v-1366h-355v1366zM547 1837q55 0 94 -33q59 -50 59 -133t-59 -133q-39 -33 -94 -33t-94 33q-60 51 -60 133t60 133q39 33 94 33zM182 1837q55 0 94 -33q60 -51 60 -133t-60 -133q-39 -33 -94 -33t-94 33q-59 50 -59 133t59 133q39 33 94 33z" />
    <glyph glyph-name="afii10057" unicode="&#x408;" horiz-adv-x="958" 
d="M461 1366h354v-940q0 -110 -22 -182.5t-95 -145.5q-129 -129 -333 -129q-119 0 -215 62q-80 54 -136 139l232 238q3 -30 17 -62.5t32 -46.5q32 -25 67 -25t62 23q37 35 37 137v932z" />
    <glyph glyph-name="afii10058" unicode="&#x409;" horiz-adv-x="2088" 
d="M1470 0h-507v1067h-334v-498q0 -327 -144 -471q-119 -116 -319 -116q-81 0 -162 18v328q47 -15 82 -15q74 0 119 41q71 62 71 258v754h1043v-532h172q278 0 407 -127q109 -109 109 -289q0 -183 -104 -287q-131 -131 -433 -131zM1319 274h137q113 0 154 41q37 37 37 103
q0 65 -39 100q-43 41 -152 41h-137v-285z" />
    <glyph glyph-name="afii10059" unicode="&#x40a;" horiz-adv-x="2109" 
d="M1339 856h172q279 0 408 -127q109 -107 109 -297q0 -194 -105 -301q-129 -131 -432 -131h-508v553h-485v-553h-355v1366h355v-510h485v510h356v-510zM1339 274h138q112 0 153 41q37 37 37 121q0 70 -39 105q-43 41 -151 41h-138v-308z" />
    <glyph glyph-name="afii10060" unicode="&#x40b;" horiz-adv-x="1576" 
d="M328 0v1065h-308v301h1100v-301h-436v-240q135 27 293 27q295 0 414 -115q29 -28 49.5 -63t30 -63t14.5 -68.5t5.5 -59t0.5 -55.5v-428h-356v344q0 35 -1.5 55.5t-11 51t-28.5 51.5q-51 55 -203 55q-90 0 -207 -18v-539h-356z" />
    <glyph glyph-name="afii10061" unicode="&#x40c;" horiz-adv-x="1421" 
d="M498 1366v-563l434 563h438l-543 -647l592 -719h-458l-463 592v-592h-355v1366h355zM805 1903l207 -150l-316 -278l-151 112z" />
    <glyph glyph-name="afii10062" unicode="&#x40e;" horiz-adv-x="1275" 
d="M0 1366h397l260 -608l228 608h379l-615 -1366h-375l191 383zM846 1833l237 -90q-50 -135 -168 -199q-95 -53 -262 -53q-159 0 -258 53q-118 64 -168 199l238 90q20 -65 65 -96q44 -33 125 -33q78 0 125 33q46 32 66 96z" />
    <glyph glyph-name="afii10145" unicode="&#x40f;" horiz-adv-x="1470" 
d="M143 0v1366h357v-1067h471v1067h356v-1366h-432v-340h-320v340h-432z" />
    <glyph glyph-name="afii10017" unicode="&#x410;" horiz-adv-x="1454" 
d="M1061 0l-84 229h-496l-92 -229h-375l525 1366h387l514 -1366h-379zM580 500h303l-154 442z" />
    <glyph glyph-name="afii10018" unicode="&#x411;" horiz-adv-x="1257" 
d="M143 0v1366h889v-301h-532v-236h139q145 0 253 -29.5t179 -103.5q105 -113 105 -282q0 -178 -113 -291q-75 -73 -182.5 -98t-253.5 -25h-484zM500 276h123q111 0 157 48q35 40 35 96q0 66 -41 102q-43 37 -151 37h-123v-283z" />
    <glyph glyph-name="afii10019" unicode="&#x412;" horiz-adv-x="1265" 
d="M713 0h-570v1366h529q202 0 299 -106q84 -91 84 -256q0 -91 -39 -168q-41 -76 -111 -107q114 -13 187 -82q92 -89 92 -250q0 -167 -101 -268q-58 -59 -153 -94t-217 -35zM498 1094v-267h65q94 0 135 43q33 33 33 91q0 54 -33 92q-41 41 -135 41h-65zM498 563v-287h80
q170 0 219 56q28 32 28 88q0 64 -34 98q-20 20 -59 30.5t-72 12.5t-89 2h-73z" />
    <glyph glyph-name="afii10020" unicode="&#x413;" horiz-adv-x="1009" 
d="M942 1366v-301h-444v-1065h-355v1366h799z" />
    <glyph glyph-name="afii10021" unicode="&#x414;" horiz-adv-x="1521" 
d="M285 1366h1032v-1092h164v-581h-320v307h-831v-307h-320v581q90 14 156 82q71 74 95 179t24 270v561zM629 1092v-322q0 -171 -33 -287q-36 -123 -119 -209h484v818h-332z" />
    <glyph glyph-name="afii10022" unicode="&#x415;" horiz-adv-x="1001" 
d="M920 1366v-301h-422v-227h399v-301h-399v-236h422v-301h-777v1366h777z" />
    <glyph glyph-name="afii10024" unicode="&#x416;" horiz-adv-x="1986" 
d="M817 0v600l-368 -600h-447l498 696l-457 670h410l364 -594v594h352v-594l365 594h410l-457 -670l498 -696h-447l-369 600v-600h-352z" />
    <glyph glyph-name="afii10025" unicode="&#x417;" horiz-adv-x="1222" 
d="M268 989l-137 260q78 54 188 97q138 51 289 51q240 0 367 -123q102 -97 102 -258q0 -113 -59 -197q-49 -70 -127 -108v-6q87 -26 151 -87q99 -94 99 -229q0 -100 -45.5 -185.5t-124.5 -140.5q-135 -94 -385 -94q-185 0 -330 60q-123 51 -225 143l180 258q62 -70 143 -115
q86 -45 185 -45q94 0 149 35q64 39 64 113q0 62 -62 102q-52 33 -168 33h-133v274h88q155 0 213 58q35 35 35 86q0 57 -53 96q-49 35 -131 35q-86 0 -160 -37q-53 -25 -113 -76z" />
    <glyph glyph-name="afii10026" unicode="&#x418;" horiz-adv-x="1517" 
d="M143 1366h357v-860l512 860h362v-1366h-356v860l-512 -860h-363v1366z" />
    <glyph glyph-name="afii10027" unicode="&#x419;" horiz-adv-x="1517" 
d="M143 1366h357v-860l512 860h362v-1366h-356v860l-512 -860h-363v1366zM940 1833l238 -90q-50 -135 -168 -199q-95 -53 -262 -53q-160 0 -259 53q-117 64 -167 199l237 90q20 -64 66 -96q44 -33 125 -33q77 0 124 33q46 32 66 96z" />
    <glyph glyph-name="afii10028" unicode="&#x41a;" horiz-adv-x="1421" 
d="M498 1366v-563l434 563h438l-543 -647l592 -719h-458l-463 592v-592h-355v1366h355z" />
    <glyph glyph-name="afii10029" unicode="&#x41b;" horiz-adv-x="1472" 
d="M276 1366h1053v-1366h-356v1067h-344v-498q0 -327 -144 -471q-119 -116 -319 -116q-81 0 -162 18v328q47 -15 82 -15q74 0 119 41q71 62 71 258v754z" />
    <glyph glyph-name="afii10030" unicode="&#x41c;" horiz-adv-x="1873" 
d="M434 0h-352l231 1366h351l276 -729l293 729h354l205 -1366h-354l-101 786l-329 -786h-142l-315 786z" />
    <glyph glyph-name="afii10031" unicode="&#x41d;" horiz-adv-x="1509" 
d="M498 1366v-510h512v510h356v-1366h-356v553h-512v-553h-355v1366h355z" />
    <glyph glyph-name="afii10032" unicode="&#x41e;" horiz-adv-x="1671" 
d="M1589 682q0 -140 -54.5 -274.5t-160.5 -235.5q-103 -99 -243.5 -151t-294.5 -52t-295 52.5t-244 150.5q-106 101 -160.5 235.5t-54.5 274.5q0 141 54.5 276.5t160.5 235.5q103 98 244 150.5t295 52.5t294.5 -52t243.5 -151q106 -100 160.5 -235.5t54.5 -276.5zM836 1053
q-77 0 -150 -27.5t-127 -81.5q-108 -105 -108 -268q0 -150 108 -254q114 -109 277 -109q167 0 274 107q50 50 80.5 118.5t30.5 143.5q0 76 -30.5 145t-80.5 117q-56 53 -128.5 81t-145.5 28z" />
    <glyph glyph-name="afii10033" unicode="&#x41f;" horiz-adv-x="1486" 
d="M1343 0h-356v1063h-489v-1063h-355v1366h1200v-1366z" />
    <glyph glyph-name="afii10034" unicode="&#x420;" horiz-adv-x="1226" 
d="M721 453h-223v-453h-355v1366h566q218 0 346 -123q73 -70 100 -151.5t27 -180.5q0 -101 -24.5 -185.5t-96.5 -154.5t-156.5 -94t-183.5 -24zM498 1079v-340h118q103 0 150 43q45 39 45 125q0 82 -41 123q-47 49 -152 49h-120z" />
    <glyph glyph-name="afii10035" unicode="&#x421;" horiz-adv-x="1206" 
d="M1124 457v-420q-105 -38 -173 -53t-134 -15q-167 0 -301 56.5t-227 148.5q-99 99 -153 231t-54 267q0 143 56 275t151 229t229 155t287 58q147 0 319 -70v-424q-122 149 -309 149q-145 0 -246 -90q-118 -110 -118 -280q0 -73 28.5 -144.5t81.5 -121.5q46 -43 113.5 -69
t140.5 -26q178 0 309 144z" />
    <glyph glyph-name="afii10036" unicode="&#x422;" horiz-adv-x="964" 
d="M950 1065h-291v-1065h-354v1065h-291v301h936v-301z" />
    <glyph glyph-name="afii10037" unicode="&#x423;" horiz-adv-x="1275" 
d="M0 1366h397l260 -608l228 608h379l-615 -1366h-375l191 383z" />
    <glyph glyph-name="afii10038" unicode="&#x424;" horiz-adv-x="1781" 
d="M713 0v190q-326 0 -486 156q-145 145 -145 385q0 257 147 397q81 79 208.5 117.5t275.5 38.5v199h356v-199q148 0 274.5 -38.5t208.5 -117.5q148 -141 148 -397q0 -239 -146 -385q-160 -156 -485 -156v-190h-356zM1042 1010v-545h19q136 0 203 65q38 37 58.5 94t20.5 117
q0 134 -79 205q-71 64 -205 64h-17zM739 1010h-16q-134 0 -205 -64q-80 -72 -80 -205q0 -59 21 -116.5t59 -94.5q67 -65 203 -65h18v545z" />
    <glyph glyph-name="afii10039" unicode="&#x425;" horiz-adv-x="1456" 
d="M0 0l535 729l-439 637h439l202 -354l211 354h436l-444 -637l516 -729h-430l-291 444l-307 -444h-428z" />
    <glyph glyph-name="afii10040" unicode="&#x426;" horiz-adv-x="1529" 
d="M143 0v1366h357v-1067h471v1067h356v-1067h172v-606h-319v307h-1037z" />
    <glyph glyph-name="afii10041" unicode="&#x427;" horiz-adv-x="1351" 
d="M852 0v537q-141 -21 -285 -21q-264 0 -372 102q-109 102 -109 324v424h356v-371q0 -100 41 -141q43 -43 168 -43q109 0 201 14v541h356v-1366h-356z" />
    <glyph glyph-name="afii10042" unicode="&#x428;" horiz-adv-x="2043" 
d="M143 0v1366h357v-1067h344v1067h356v-1067h344v1067h357v-1366h-1758z" />
    <glyph glyph-name="afii10043" unicode="&#x429;" horiz-adv-x="2123" 
d="M1774 0h-1631v1366h357v-1067h344v1067h356v-1067h344v1067h357v-1067h192v-606h-319v307z" />
    <glyph glyph-name="afii10044" unicode="&#x42a;" horiz-adv-x="1427" 
d="M301 0v1067h-281v299h637v-532h172q279 0 408 -127q109 -109 109 -289q0 -182 -105 -287q-131 -131 -432 -131h-508zM657 274h138q112 0 153 41q37 37 37 103q0 65 -39 100q-43 41 -151 41h-138v-285z" />
    <glyph glyph-name="afii10045" unicode="&#x42b;" horiz-adv-x="1800" 
d="M1300 0v1366h357v-1366h-357zM143 0v1366h357v-532h172q52 0 95 -3.5t102 -15t113 -39t97 -69.5q109 -107 109 -289t-103 -287q-42 -42 -96 -70t-115.5 -40.5t-111 -16.5t-111.5 -4h-508zM500 274h137q113 0 154 41q36 36 36 103q0 65 -39 100q-43 41 -151 41h-137v-285z
" />
    <glyph glyph-name="afii10046" unicode="&#x42c;" horiz-adv-x="1269" 
d="M143 0v1366h357v-532h172q278 0 407 -127q109 -109 109 -289q0 -182 -105 -287q-131 -131 -432 -131h-508zM500 274h137q113 0 154 41q36 36 36 103q0 65 -39 100q-43 41 -151 41h-137v-285z" />
    <glyph glyph-name="afii10047" unicode="&#x42d;" horiz-adv-x="1265" 
d="M102 72v354q56 -56 138 -96q93 -45 217 -45q150 0 241 75q91 76 115 199h-520v275h508q-22 110 -105 178q-89 71 -239 71q-121 0 -217 -51q-81 -45 -138 -108v370q204 101 402 101q303 0 489 -193q88 -92 139.5 -223.5t51.5 -290.5q0 -154 -53.5 -292.5t-151.5 -239.5
q-99 -102 -219 -144.5t-268 -42.5q-127 0 -236 35q-67 20 -154 68z" />
    <glyph glyph-name="afii10048" unicode="&#x42e;" horiz-adv-x="2224" 
d="M498 838h176q43 237 223 391q195 168 487 168q330 0 539 -201q103 -97 161 -231t58 -281q0 -145 -58.5 -280.5t-160.5 -233.5q-209 -201 -539 -201q-153 0 -271.5 43t-219.5 133q-190 172 -219 418h-176v-563h-355v1366h355v-528zM1397 1053q-160 0 -273 -113
q-49 -49 -78.5 -116.5t-29.5 -141.5q0 -156 112 -262q110 -107 267 -107q76 0 145 30t119 79q51 51 82 123.5t31 142.5q0 68 -29.5 136.5t-83.5 121.5q-110 107 -262 107z" />
    <glyph glyph-name="afii10049" unicode="&#x42f;" horiz-adv-x="1265" 
d="M29 0l381 514q-117 19 -203 107q-107 110 -107 286q0 99 30.5 183t82.5 139q128 137 383 137h526v-1366h-356v465h-35l-293 -465h-409zM766 739v328h-100q-103 0 -154 -47q-47 -41 -47 -117q0 -74 43 -117q50 -47 158 -47h100z" />
    <glyph glyph-name="afii10065" unicode="&#x430;" horiz-adv-x="1261" 
d="M821 827v88h328v-915h-328v100q-96 -131 -284 -131q-191 0 -330 146q-131 140 -131 336q0 225 141 366q60 60 146.5 94.5t183.5 34.5q166 0 274 -119zM621 668q-81 0 -144 -60q-65 -62 -65 -149q0 -90 63 -150q28 -26 68 -43.5t80 -17.5q84 0 147 63q61 61 61 148
q0 88 -63 149q-64 60 -147 60z" />
    <glyph glyph-name="afii10066" unicode="&#x431;" horiz-adv-x="1253" 
d="M362 817h15q106 125 309 125q225 0 363 -129q129 -121 129 -332q0 -220 -142 -362q-150 -150 -409 -150q-255 0 -396 146q-155 159 -155 481q0 411 196 616q67 68 152.5 106.5t220.5 65.5l60 13q108 20 139 51q26 30 26 68h285q-14 -107 -84 -199q-41 -54 -82.5 -81
t-105.5 -50q-33 -12 -238 -70q-140 -37 -201 -100q-73 -79 -82 -199zM627 672q-81 0 -142 -54q-69 -62 -69 -155q0 -95 69 -158q58 -53 142 -53q85 0 141 53q32 31 51 77.5t19 88.5q0 86 -70 147q-61 54 -141 54z" />
    <glyph glyph-name="afii10067" unicode="&#x432;" horiz-adv-x="1083" 
d="M113 915h561q164 0 233 -65q64 -61 64 -160q0 -79 -39 -137q-34 -48 -101 -76v-4q81 -16 132 -63q65 -60 65 -158q0 -111 -65 -176q-35 -35 -95 -55.5t-129 -20.5h-626v915zM440 551h123q59 0 84 20q25 22 25 66q0 37 -23 57q-26 23 -88 23h-121v-166zM440 199h146
q52 0 80 26q26 26 26 66q0 43 -24 67q-7 7 -14.5 11.5t-12 6.5t-14.5 3.5t-12.5 1.5h-15h-13.5h-146v-182z" />
    <glyph glyph-name="afii10068" unicode="&#x433;" horiz-adv-x="784" 
d="M113 0v915h643v-268h-316v-647h-327z" />
    <glyph glyph-name="afii10069" unicode="&#x434;" horiz-adv-x="1220" 
d="M215 915h842v-686h133v-495h-287v266h-608v-266h-287v495q74 5 125 56q82 80 82 262v368zM737 229v457h-219v-156q0 -105 -26 -174q-29 -81 -86 -127h331z" />
    <glyph glyph-name="afii10070" unicode="&#x435;" horiz-adv-x="1159" 
d="M1083 432v-35h-682q0 -40 15 -82.5t43 -70.5q45 -45 135 -45q63 0 106 24q40 24 58 62h313q-31 -112 -110 -189q-131 -127 -373 -127q-239 0 -379 140q-135 135 -135 346q0 220 137 354q137 133 375 133q218 0 352 -125q145 -138 145 -385zM412 586h370q-13 58 -53 98
q-49 49 -135 49q-84 0 -133 -49q-41 -45 -49 -98z" />
    <glyph glyph-name="afii10072" unicode="&#x436;" horiz-adv-x="1675" 
d="M676 0v397l-273 -397h-401l373 477l-318 438h373l246 -383v383h323v-383l246 383h373l-318 -438l373 -477h-401l-273 397v-397h-323z" />
    <glyph glyph-name="afii10073" unicode="&#x437;" horiz-adv-x="950" 
d="M178 633l-108 213q69 38 151 63q119 37 234 37q225 0 327 -102q66 -66 66 -162q0 -85 -45 -137q-39 -46 -92 -68v-4q76 -12 127 -63q55 -55 55 -142q0 -55 -22.5 -108t-61.5 -90q-104 -101 -352 -101q-129 0 -238 35q-97 31 -182 84l121 227q55 -43 114 -69
q71 -29 144 -29q61 0 98 16q19 9 31 27t12 35q0 35 -37 51q-32 14 -106 14h-113v213h92q60 0 103 15t43 53q0 36 -39 53q-34 17 -94 17q-59 0 -125 -25q-58 -21 -103 -53z" />
    <glyph glyph-name="afii10074" unicode="&#x438;" horiz-adv-x="1200" 
d="M113 915h327v-471l363 471h284v-915h-327v483l-359 -483h-288v915z" />
    <glyph glyph-name="afii10075" unicode="&#x439;" horiz-adv-x="1200" 
d="M113 915h327v-471l363 471h284v-915h-327v483l-359 -483h-288v915zM758 1384l219 -77q-34 -124 -139 -189q-91 -57 -238 -57t-238 57q-105 65 -139 189l219 77q15 -54 47 -86q39 -41 111 -41t111 41q32 32 47 86z" />
    <glyph glyph-name="afii10076" unicode="&#x43a;" horiz-adv-x="1165" 
d="M113 0v915h327v-374l277 374h411l-378 -430l413 -485h-424l-299 406v-406h-327z" />
    <glyph glyph-name="afii10077" unicode="&#x43b;" horiz-adv-x="1179" 
d="M1067 915v-915h-328v647h-233v-262q0 -209 -96 -309q-86 -88 -258 -88q-64 0 -132 12v238q88 -11 130 34q40 43 40 148v495h877z" />
    <glyph glyph-name="afii10078" unicode="&#x43c;" horiz-adv-x="1392" 
d="M41 0l145 915h285l225 -495l226 495h284l146 -915h-308l-73 477l-215 -477h-119l-215 477l-74 -477h-307z" />
    <glyph glyph-name="afii10079" unicode="&#x43d;" horiz-adv-x="1185" 
d="M113 0v915h327v-309h305v309h328v-915h-328v348h-305v-348h-327z" />
    <glyph glyph-name="afii10080" unicode="&#x43e;" horiz-adv-x="1251" 
d="M627 668q-39 0 -79.5 -16.5t-68.5 -43.5q-63 -60 -63 -149q0 -83 63 -146q61 -61 148 -61q84 0 145 61q64 61 64 146q0 38 -17 78.5t-47 70.5q-28 27 -67.5 43.5t-77.5 16.5zM1176 459q0 -199 -142 -338q-155 -152 -409 -152t-408 152q-141 138 -141 338q0 199 141 336
q155 151 408 151q250 0 409 -151q142 -138 142 -336z" />
    <glyph glyph-name="afii10081" unicode="&#x43f;" horiz-adv-x="1173" 
d="M113 0v915h948v-915h-328v657h-293v-657h-327z" />
    <glyph glyph-name="afii10082" unicode="&#x440;" horiz-adv-x="1261" 
d="M440 88v-557h-327v1384h327v-100q104 131 281 131q193 0 326 -133q139 -139 139 -354q0 -218 -148 -363q-130 -127 -313 -127q-170 0 -285 119zM641 668q-85 0 -147 -62q-64 -64 -64 -151q0 -38 18.5 -78.5t45.5 -67.5q61 -61 147 -61q87 0 145 61q28 28 46 67t18 79
q0 87 -64 151q-59 62 -145 62z" />
    <glyph glyph-name="afii10083" unicode="&#x441;" horiz-adv-x="878" 
d="M805 295v-275q-104 -51 -227 -51q-214 0 -361 140q-66 64 -103.5 153.5t-37.5 188.5q0 101 39 193.5t108 160.5q146 139 369 139q111 0 213 -51v-275q-83 60 -170 60q-96 0 -160 -64q-63 -63 -63 -157q0 -91 57 -154q66 -70 168 -70q96 0 168 62z" />
    <glyph glyph-name="afii10084" unicode="&#x442;" horiz-adv-x="843" 
d="M258 0v647h-238v268h803v-268h-237v-647h-328z" />
    <glyph glyph-name="afii10085" unicode="&#x443;" horiz-adv-x="1236" 
d="M135 -469l307 594l-442 790h381l244 -469l237 469h375l-735 -1384h-367z" />
    <glyph glyph-name="afii10086" unicode="&#x444;" horiz-adv-x="1523" 
d="M926 -469h-328v455h-6q-250 0 -389 139q-127 124 -127 332q0 218 135 342q142 131 381 131h6v436h328v-436h6q239 0 381 -131q135 -124 135 -342q0 -208 -127 -332q-139 -139 -389 -139h-6v-455zM903 694v-473h4q96 0 154 53q72 65 72 185q0 112 -70 180q-57 55 -154 55
h-6zM621 694h-7q-96 0 -153 -55q-70 -68 -70 -180q0 -120 72 -185q58 -53 153 -53h5v473z" />
    <glyph glyph-name="afii10087" unicode="&#x445;" horiz-adv-x="1335" 
d="M0 0l457 498l-371 417h426l158 -188l161 188h424l-378 -417l458 -498h-434l-233 272l-234 -272h-434z" />
    <glyph glyph-name="afii10088" unicode="&#x446;" horiz-adv-x="1220" 
d="M113 0v915h327v-657h281v657h328v-657h151v-524h-287v266h-800z" />
    <glyph glyph-name="afii10089" unicode="&#x447;" horiz-adv-x="1101" 
d="M662 0v299q-95 -23 -201 -23q-204 0 -293 91q-82 82 -82 260v288h315v-266q0 -75 35 -104q29 -25 111 -25q64 0 115 15v380h327v-915h-327z" />
    <glyph glyph-name="afii10090" unicode="&#x448;" horiz-adv-x="1699" 
d="M113 0v915h327v-657h246v657h328v-657h246v657h327v-915h-1474z" />
    <glyph glyph-name="afii10091" unicode="&#x449;" horiz-adv-x="1781" 
d="M1477 0h-1364v915h327v-657h248v657h328v-657h248v657h327v-657h172v-524h-286v266z" />
    <glyph glyph-name="afii10092" unicode="&#x44a;" horiz-adv-x="1193" 
d="M584 610h229q164 0 248 -82q82 -79 82 -219q0 -61 -20 -120t-58 -99q-43 -43 -111 -66.5t-141 -23.5h-557v647h-236v268h564v-305zM584 213h123q24 0 50 8.5t38 20.5q20 20 20 65q0 47 -22 66q-28 24 -91 24h-118v-184z" />
    <glyph glyph-name="afii10093" unicode="&#x44b;" horiz-adv-x="1519" 
d="M1079 0v915h328v-915h-328zM440 610h224q158 0 245 -82q82 -80 82 -219q0 -141 -78 -219q-43 -43 -110.5 -66.5t-138.5 -23.5h-551v915h327v-305zM440 213h123q24 0 50 8.5t38 20.5q23 23 23 65q0 45 -25 66q-31 24 -90 24h-119v-184z" />
    <glyph glyph-name="afii10094" unicode="&#x44c;" horiz-adv-x="1050" 
d="M440 610h230q162 0 248 -82q81 -78 81 -219q0 -62 -19.5 -121.5t-57.5 -97.5q-43 -43 -113 -66.5t-139 -23.5h-557v915h327v-305zM440 213h123q22 0 48 7.5t38 21.5q23 23 23 65q0 44 -25 66q-31 24 -88 24h-119v-184z" />
    <glyph glyph-name="afii10095" unicode="&#x44d;" horiz-adv-x="974" 
d="M94 31v274q100 -88 246 -88q101 0 158 35q59 36 77 104h-352v213h352q-28 69 -86 101q-58 30 -143 30q-80 0 -145 -28q-51 -20 -107 -72v270q133 74 307 74q230 0 363 -129q135 -130 135 -352q0 -128 -40.5 -221t-100.5 -148q-132 -125 -369 -125q-149 0 -295 62z" />
    <glyph glyph-name="afii10096" unicode="&#x44e;" horiz-adv-x="1667" 
d="M1042 668q-87 0 -147 -60q-64 -64 -64 -149q0 -84 64 -148q56 -59 147 -59q87 0 146 59q61 61 61 152q0 82 -57 145q-56 60 -150 60zM440 606h97q48 146 174 240q135 100 329 100q127 0 232.5 -41t177.5 -110q63 -63 102 -150t39 -182t-36 -185t-105 -157
q-65 -65 -170 -108.5t-250 -43.5q-250 0 -387 140q-41 43 -72 106t-43 133h-88v-348h-327v915h327v-309z" />
    <glyph glyph-name="afii10097" unicode="&#x44f;" horiz-adv-x="1069" 
d="M57 0l254 319q-93 18 -159 80q-72 72 -72 197q0 138 82 223q51 54 127.5 75t183.5 21h483v-915h-327v291h-27l-201 -291h-344zM629 492v210h-99q-72 0 -102 -28q-29 -29 -29 -78q0 -51 31 -78q33 -26 96 -26h103z" />
    <glyph glyph-name="afii10071" unicode="&#x451;" horiz-adv-x="1159" 
d="M1083 432v-35h-682q0 -40 15 -82.5t43 -70.5q45 -45 135 -45q63 0 106 24q40 24 58 62h313q-31 -112 -110 -189q-131 -127 -373 -127q-239 0 -379 140q-135 135 -135 346q0 220 137 354q137 133 375 133q218 0 352 -125q145 -138 145 -385zM412 586h370q-13 58 -53 98
q-49 49 -135 49q-84 0 -133 -49q-41 -45 -49 -98zM190 1257q0 72 50 122.5t122 50.5t122.5 -50.5t50.5 -122.5t-50.5 -122t-122.5 -50t-122 50t-50 122zM625 1257q0 72 50 122.5t122 50.5t122 -50.5t50 -122.5t-50 -122t-122 -50t-122 50t-50 122z" />
    <glyph glyph-name="afii10099" unicode="&#x452;" horiz-adv-x="1198" 
d="M113 0v995h-168v222h168v276h327v-276h336v-222h-336v-276q45 56 103 90q77 45 188 45q172 0 270 -98q55 -55 70.5 -113.5t15.5 -142.5v-623q0 -179 -83 -262q-86 -86 -256 -86q-73 0 -181 22v254q40 -11 86.5 -4.5t71.5 31.5q8 8 14.5 18t10.5 22t6 21.5t3 24t1 21.5v23
v20v399q0 133 -41 178q-35 39 -105 39q-74 0 -118 -39q-56 -52 -56 -149v-410h-327z" />
    <glyph glyph-name="afii10100" unicode="&#x453;" horiz-adv-x="784" 
d="M113 0v915h643v-268h-316v-647h-327zM549 1493l207 -150l-316 -278l-151 113z" />
    <glyph glyph-name="afii10101" unicode="&#x454;" horiz-adv-x="974" 
d="M881 305v-274q-146 -62 -295 -62q-237 0 -369 123q-65 60 -103 154.5t-38 212.5q0 217 135 352q137 133 362 133q169 0 308 -74v-270q-47 47 -107 72q-66 28 -145 28q-82 0 -144 -30q-58 -32 -86 -101h353v-213h-353q17 -67 78 -104q57 -35 158 -35q146 0 246 88z" />
    <glyph glyph-name="afii10102" unicode="&#x455;" horiz-adv-x="909" 
d="M55 76l117 227q61 -45 131 -67q67 -23 127 -23q56 0 84 25q16 16 16 43t-16 41q-17 15 -86 32l-86 21q-108 24 -160 80q-59 62 -59 157q0 65 23.5 124t62.5 100q52 53 138.5 81.5t189.5 28.5q156 0 292 -59l-110 -209q-101 45 -172 45q-46 0 -76 -18q-29 -16 -29 -46
q0 -35 39 -51q17 -6 51.5 -13t57.5 -13l59 -17q34 -9 75 -30.5t60 -40.5q33 -32 51.5 -81.5t18.5 -101.5q0 -139 -92 -227q-115 -115 -338 -115q-193 0 -369 107z" />
    <glyph glyph-name="afii10103" unicode="&#x456;" horiz-adv-x="550" 
d="M113 915h327v-915h-327v915zM92 1296q0 77 54 131t130 54t130.5 -54.5t54.5 -130.5t-54 -130t-131 -54q-76 0 -130 54t-54 130z" />
    <glyph glyph-name="afii10104" unicode="&#x457;" horiz-adv-x="716" 
d="M197 915h323v-915h-323v915zM541 1479q55 0 94 -33q59 -50 59 -133t-59 -133q-39 -33 -94 -33q-56 0 -95 33q-59 50 -59 133t59 133q39 33 95 33zM176 1479q55 0 94 -33q60 -51 60 -133t-60 -133q-39 -33 -94 -33t-94 33q-59 50 -59 133t59 133q39 33 94 33z" />
    <glyph glyph-name="afii10105" unicode="&#x458;" horiz-adv-x="550" 
d="M113 915h327v-1384h-327v1384zM92 1296q0 77 54 131t130 54t130.5 -54.5t54.5 -130.5t-54 -130t-131 -54q-76 0 -130 54t-54 130z" />
    <glyph glyph-name="afii10106" unicode="&#x459;" horiz-adv-x="1669" 
d="M1057 610h231q159 0 246 -82q84 -80 84 -219t-80 -219q-30 -30 -71.5 -50.5t-81 -28t-60.5 -9.5t-37 -2h-549v647h-233v-262q0 -210 -96 -309q-84 -88 -250 -88q-76 0 -140 12v238q84 -12 127 34t43 148v495h867v-305zM1057 213h125q22 0 48 8.5t38 20.5q22 22 22 65
q0 46 -24 66q-31 24 -88 24h-121v-184z" />
    <glyph glyph-name="afii10107" unicode="&#x45a;" horiz-adv-x="1675" 
d="M1065 610h229q162 0 248 -82q82 -79 82 -219q0 -62 -20 -121.5t-58 -97.5q-43 -43 -113 -66.5t-139 -23.5h-557v397h-297v-397h-327v915h327v-305h297v305h328v-305zM1065 213h123q22 0 48 7.5t38 21.5q22 22 22 65q0 45 -24 66q-31 24 -88 24h-119v-184z" />
    <glyph glyph-name="afii10108" unicode="&#x45b;" horiz-adv-x="1198" 
d="M113 0v995h-168v222h168v276h327v-276h336v-222h-336v-276q45 56 103 90q77 45 188 45q172 0 270 -98q55 -55 70.5 -113.5t15.5 -142.5v-500h-327v381q0 133 -41 178q-35 39 -105 39q-74 0 -118 -39q-56 -52 -56 -149v-410h-327z" />
    <glyph glyph-name="afii10109" unicode="&#x45c;" horiz-adv-x="1165" 
d="M113 0v915h327v-374l277 374h411l-378 -430l413 -485h-424l-299 406v-406h-327zM692 1493l207 -150l-315 -278l-152 113z" />
    <glyph glyph-name="afii10110" unicode="&#x45e;" horiz-adv-x="1236" 
d="M135 -469l307 594l-442 790h381l244 -469l237 469h375l-735 -1384h-367zM793 1384l219 -77q-34 -123 -140 -189q-91 -57 -237 -57q-147 0 -238 57q-105 65 -139 189l219 77q15 -54 47 -86q39 -41 111 -41q71 0 110 41q34 34 48 86z" />
    <glyph glyph-name="afii10193" unicode="&#x45f;" horiz-adv-x="1159" 
d="M113 0v915h327v-657h279v657h328v-915h-324v-287h-287v287h-323z" />
    <glyph glyph-name="afii10146" unicode="&#x462;" horiz-adv-x="1419" 
d="M293 0v1014h-273v235h273v234h356v-234h391v-235h-391v-180h172q279 0 408 -127q108 -108 108 -289q0 -183 -104 -287q-131 -131 -432 -131h-508zM649 274h137q113 0 154 41q37 37 37 103q0 65 -39 100q-43 41 -152 41h-137v-285z" />
    <glyph glyph-name="afii10194" unicode="&#x463;" horiz-adv-x="1193" 
d="M575 735v-117h234q165 0 250 -83q84 -79 84 -222q0 -141 -80 -221q-41 -41 -107 -66.5t-147 -25.5h-561v735h-228v193h228v438h327v-438h345v-193h-345zM575 215h125q24 0 49.5 9t38.5 22q23 23 23 65q0 41 -25 66q-28 26 -90 26h-121v-188z" />
    <glyph glyph-name="afii10147" unicode="&#x472;" horiz-adv-x="1671" 
d="M487 829h693q-38 101 -113 162q-94 78 -233 78q-129 0 -226 -74q-90 -65 -121 -166zM1196 571h-725q30 -107 109 -180q107 -94 254 -94q135 0 241 86q92 74 121 188zM1589 682q0 -140 -54.5 -274.5t-160.5 -235.5q-103 -99 -243.5 -151t-294.5 -52t-295 52.5t-244 150.5
q-106 101 -160.5 235.5t-54.5 274.5q0 141 54.5 276.5t160.5 235.5q103 98 244 150.5t295 52.5t294.5 -52t243.5 -151q106 -100 160.5 -235.5t54.5 -276.5z" />
    <glyph glyph-name="afii10195" unicode="&#x473;" horiz-adv-x="1267" 
d="M436 545h393q-18 57 -61 96q-51 45 -135 45q-92 0 -141 -49q-42 -39 -56 -92zM836 401h-404q17 -68 70 -110q55 -45 133 -45q80 0 135 49q52 52 66 106zM1192 465q0 -94 -36 -183t-107 -159q-72 -71 -179 -112.5t-237 -41.5q-128 0 -234 41.5t-180 112.5q-71 70 -107 159
t-36 183q0 101 39 189t104 151q160 153 414 153q130 0 237 -41t179 -112q65 -63 104 -151t39 -189z" />
    <glyph glyph-name="afii10148" unicode="&#x474;" horiz-adv-x="1431" 
d="M0 1366h387l328 -831l332 831h385l-582 -1366h-277z" />
    <glyph glyph-name="afii10196" unicode="&#x475;" horiz-adv-x="1173" 
d="M0 915h367l219 -469l223 469h365l-478 -915h-223z" />
    <glyph glyph-name="afii10050" unicode="&#x490;" horiz-adv-x="1003" 
d="M143 0v1366h519v272h301v-573h-465v-1065h-355z" />
    <glyph glyph-name="afii10098" unicode="&#x491;" horiz-adv-x="888" 
d="M113 915h432v287h293v-555h-398v-647h-327v915z" />
    <glyph glyph-name="uni0492" unicode="&#x492;" horiz-adv-x="1105" 
d="M1024 1366v-301h-444v-270h335v-271h-335v-524h-355v524h-205v271h205v571h799z" />
    <glyph glyph-name="uni0493" unicode="&#x493;" horiz-adv-x="890" 
d="M180 0v305h-160v203h160v407h662v-268h-334v-139h207v-203h-207v-305h-328z" />
    <glyph glyph-name="uni0494" unicode="&#x494;" horiz-adv-x="1298" 
d="M975 1366v-301h-477v-270q137 47 260 47q172 0 282 -62q191 -107 191 -364q0 -134 -48 -220.5t-118 -132.5q-58 -37 -146 -56t-174 -19q-42 0 -116 12v270q43 -12 90 -12q59 0 98 29q45 33 45 119q0 84 -67 120q-41 21 -113 21q-90 0 -184 -47v-500h-355v1366h832z" />
    <glyph glyph-name="uni0495" unicode="&#x495;" horiz-adv-x="1028" 
d="M113 0v915h661v-268h-334v-164h33q128 0 225.5 -23.5t169.5 -92.5q111 -106 111 -304q0 -221 -117 -346q-125 -136 -383 -143v238q77 3 125 51q55 55 55 178q0 122 -53 168q-44 39 -145 39h-21v-248h-327z" />
    <glyph glyph-name="uni0496" unicode="&#x496;" horiz-adv-x="1994" 
d="M817 0v600l-368 -600h-447l498 696l-457 670h410l364 -594v594h352v-594l365 594h410l-457 -670l305 -397h182v-606h-319v307h-109l-377 600v-600h-352z" />
    <glyph glyph-name="uni0497" unicode="&#x497;" horiz-adv-x="1660" 
d="M635 0v397l-260 -397h-398l357 477l-305 438h372l234 -383v383h323v-383l246 383h373l-317 -438l182 -219h190v-524h-286v266h-107l-281 397v-397h-323z" />
    <glyph glyph-name="uni0498" unicode="&#x498;" horiz-adv-x="1222" 
d="M268 991l-137 260q78 54 188 97q138 51 289 51q240 0 367 -123q102 -97 102 -258q0 -112 -59 -199q-44 -63 -127 -114q87 -26 151 -87q99 -90 99 -233q0 -80 -31 -155.5t-86 -129.5q-51 -49 -125 -84t-156 -45v-311h-319v322q-203 19 -393 186l180 258q66 -72 143 -115
q83 -45 185 -45q94 0 149 35q64 42 64 113q0 66 -62 106q-52 33 -168 33h-133v274h88q155 0 213 58q35 35 35 88q0 57 -53 96q-49 35 -131 35q-86 0 -160 -37q-53 -25 -113 -76z" />
    <glyph glyph-name="uni0499" unicode="&#x499;" horiz-adv-x="950" 
d="M178 635l-108 213q69 38 151 63q119 37 234 37q225 0 327 -102q66 -66 66 -162q0 -87 -45 -139q-36 -41 -92 -72q81 -14 127 -63q55 -55 55 -146q0 -55 -22.5 -108t-61.5 -90q-84 -80 -213 -89v-264h-287v264q-147 22 -272 107l121 227q55 -43 114 -69q71 -29 144 -29
q68 0 100 18q19 10 30 27t11 33q0 37 -37 55q-35 14 -106 14h-113v213h92q60 0 103 15t43 55q0 37 -39 53q-34 17 -94 17q-59 0 -125 -25q-58 -21 -103 -53z" />
    <glyph glyph-name="uni049A" unicode="&#x49a;" horiz-adv-x="1413" 
d="M498 1366v-563l434 563h438l-543 -647l363 -420h192v-606h-319v307h-90l-475 592v-592h-355v1366h355z" />
    <glyph glyph-name="uni049B" unicode="&#x49b;" horiz-adv-x="1183" 
d="M113 0v915h327v-374l277 374h411l-370 -423l209 -234h188v-524h-287v266h-112l-316 406v-406h-327z" />
    <glyph glyph-name="uni049C" unicode="&#x49c;" horiz-adv-x="1650" 
d="M143 1366h355v-543h102v289h227v-289l383 543h414l-491 -647l516 -719h-430l-392 612v-286h-227v286h-102v-612h-355v1366z" />
    <glyph glyph-name="uni049D" unicode="&#x49d;" horiz-adv-x="1333" 
d="M113 0v915h327v-354h74v199h199v-219l229 374h365l-316 -440l322 -475h-365l-235 406v-248h-199v219h-74v-377h-327z" />
    <glyph glyph-name="uni04A0" unicode="&#x4a0;" horiz-adv-x="1628" 
d="M705 1366v-563l434 563h438l-543 -647l592 -719h-459l-462 592v-592h-355v1065h-330v301h685z" />
    <glyph glyph-name="uni04A1" unicode="&#x4a1;" horiz-adv-x="1310" 
d="M258 0v657h-248v258h576v-374l278 374h410l-379 -430l414 -485h-422l-301 406v-406h-328z" />
    <glyph glyph-name="uni04A2" unicode="&#x4a2;" horiz-adv-x="1568" 
d="M498 1366v-510h512v510h356v-1067h172v-606h-319v307h-209v553h-512v-553h-355v1366h355z" />
    <glyph glyph-name="uni04A3" unicode="&#x4a3;" horiz-adv-x="1245" 
d="M113 0v915h327v-309h305v309h328v-657h152v-524h-287v266h-193v348h-305v-348h-327z" />
    <glyph glyph-name="uni04A4" unicode="&#x4a4;" horiz-adv-x="1787" 
d="M498 1366v-510h512v510h729v-301h-375v-1065h-354v553h-512v-553h-355v1366h355z" />
    <glyph glyph-name="uni04A5" unicode="&#x4a5;" horiz-adv-x="1386" 
d="M113 0v915h327v-309h305v309h613v-268h-285v-647h-328v348h-305v-348h-327z" />
    <glyph glyph-name="uni04AA" unicode="&#x4aa;" horiz-adv-x="1208" 
d="M1126 451v-420q-64 -31 -141 -43v-328h-319v317q-235 20 -394 179q-190 186 -190 503q0 310 209 523q95 97 229 155t287 58q147 0 319 -70v-424q-122 150 -307 150q-145 0 -246 -90q-61 -55 -90.5 -132t-29.5 -155q0 -76 30 -151.5t82 -121.5q50 -45 119.5 -69.5
t134.5 -24.5q176 0 307 144z" />
    <glyph glyph-name="uni04AB" unicode="&#x4ab;" horiz-adv-x="878" 
d="M805 295v-275q-54 -28 -117 -36v-271h-287v285q-118 20 -202 104q-123 123 -123 332q0 228 147 371q146 139 369 139q111 0 213 -51v-275q-83 60 -170 60q-96 0 -160 -64q-63 -63 -63 -157q0 -91 57 -154q66 -70 168 -70q96 0 168 62z" />
    <glyph glyph-name="uni04AE" unicode="&#x4ae;" horiz-adv-x="1310" 
d="M469 0v655l-494 711h424l258 -373l248 373h430l-510 -711v-655h-356z" />
    <glyph glyph-name="uni04AF" unicode="&#x4af;" horiz-adv-x="1058" 
d="M0 915h336l203 -499l186 499h334l-365 -827v-557h-327v553z" />
    <glyph glyph-name="uni04B0" unicode="&#x4b0;" horiz-adv-x="1310" 
d="M469 0v338h-369v262h369v55l-494 711h424l258 -373l248 373h430l-510 -711v-55h369v-262h-369v-338h-356z" />
    <glyph glyph-name="uni04B1" unicode="&#x4b1;" horiz-adv-x="1058" 
d="M0 915h336l203 -499l186 499h334l-365 -811v-61h277v-203h-277v-309h-327v309h-277v203h277v61z" />
    <glyph glyph-name="uni04B2" unicode="&#x4b2;" horiz-adv-x="1464" 
d="M0 0l535 729l-439 637h439l202 -354l211 354h436l-444 -637l305 -430h199v-606h-320v307h-98l-291 444l-307 -444h-428z" />
    <glyph glyph-name="uni04B3" unicode="&#x4b3;" horiz-adv-x="1333" 
d="M0 0l457 498l-371 417h426l158 -188l161 188h424l-378 -417l223 -240h205v-524h-287v266h-117l-233 272l-236 -272h-432z" />
    <glyph glyph-name="uni04B6" unicode="&#x4b6;" horiz-adv-x="1411" 
d="M1061 0h-209v537q-141 -21 -285 -21q-264 0 -372 102q-109 102 -109 324v424h356v-371q0 -100 41 -141q43 -43 168 -43q109 0 201 14v541h356v-1067h172v-606h-319v307z" />
    <glyph glyph-name="uni04B7" unicode="&#x4b7;" horiz-adv-x="1163" 
d="M856 0h-192v299q-101 -23 -197 -23q-206 0 -297 91q-51 51 -67.5 116t-16.5 144v288h315v-266q0 -75 35 -104q29 -25 107 -25q67 0 121 15v380h327v-657h152v-524h-287v266z" />
    <glyph glyph-name="uni04B8" unicode="&#x4b8;" horiz-adv-x="1454" 
d="M954 0v545q-66 -17 -127 -17v-270h-229v262q-69 -2 -137.5 6t-150 41.5t-132.5 89.5q-31 35 -51 74t-28 82.5t-10.5 75t-2.5 78.5v397h356v-338q0 -121 45 -166q38 -41 111 -45v297h229v-297q68 -3 127 12v539h357v-1366h-357z" />
    <glyph glyph-name="uni04B9" unicode="&#x4b9;" horiz-adv-x="1212" 
d="M772 0v326q-64 -14 -84 -17v-172h-188v150h-11q-106 0 -185 18.5t-134 71.5q-84 82 -84 225v313h307v-278q0 -69 31 -100q23 -23 70 -23h6v246h188v-246q44 0 84 16v385h328v-915h-328z" />
    <glyph glyph-name="uni04BA" unicode="&#x4ba;" horiz-adv-x="1392" 
d="M500 1366v-541q135 27 293 27q294 0 413 -115q36 -35 58.5 -75.5t30.5 -87.5t10 -74t2 -72v-428h-357v344q0 35 -1.5 55.5t-11 51t-28.5 51.5q-51 55 -202 55q-90 0 -207 -18v-539h-357v1366h357z" />
    <glyph glyph-name="uni04BB" unicode="&#x4bb;" horiz-adv-x="1198" 
d="M113 0v1493h327v-692q45 56 103 90q77 45 188 45q172 0 270 -98q55 -55 70.5 -113.5t15.5 -142.5v-582h-327v463q0 133 -41 178q-35 39 -105 39q-74 0 -118 -39q-56 -52 -56 -149v-492h-327z" />
    <glyph glyph-name="uni04C0" unicode="&#x4c0;" horiz-adv-x="641" 
d="M143 1366h355v-1366h-355v1366z" />
    <glyph glyph-name="uni04C1" unicode="&#x4c1;" horiz-adv-x="1986" 
d="M817 0v600l-368 -600h-447l498 696l-457 670h410l364 -594v594h352v-594l365 594h410l-457 -670l498 -696h-447l-369 600v-600h-352zM1128 1833l238 -90q-50 -135 -168 -199q-95 -53 -262 -53q-159 0 -258 53q-118 64 -168 199l238 90q20 -65 65 -96q44 -33 125 -33
q78 0 125 33q45 31 65 96z" />
    <glyph glyph-name="uni04C2" unicode="&#x4c2;" horiz-adv-x="1675" 
d="M676 0v397l-273 -397h-401l373 477l-318 438h373l246 -383v383h323v-383l246 383h373l-318 -438l373 -477h-401l-273 397v-397h-323zM1022 1384l219 -77q-34 -124 -139 -189q-91 -57 -238 -57q-146 0 -237 57q-106 66 -140 189l220 77q15 -54 47 -86q39 -41 110 -41
q72 0 111 41q32 32 47 86z" />
    <glyph glyph-name="uni04C3" unicode="&#x4c3;" horiz-adv-x="1318" 
d="M498 1366v-563l397 563h414l-424 -541q86 -6 173.5 -41.5t143.5 -91.5q98 -101 98 -256q0 -107 -32.5 -189.5t-85.5 -133.5q-152 -149 -482 -111v272q32 -12 74 -12q70 0 111 41q39 39 39 109q0 75 -58 114q-52 35 -153 35q-110 0 -215 -45v-516h-355v1366h355z" />
    <glyph glyph-name="uni04C4" unicode="&#x4c4;" horiz-adv-x="1052" 
d="M113 0v915h327v-389l244 389h358l-329 -454q108 -17 182 -92q109 -109 109 -303q0 -224 -117 -349q-125 -136 -383 -143v238q77 3 125 51q55 55 55 182q0 109 -57 164q-51 49 -164 49h-23v-258h-327z" />
    <glyph glyph-name="uni04C7" unicode="&#x4c7;" horiz-adv-x="1509" 
d="M498 1366v-508h512v508h356v-1505q0 -51 -4 -88t-25 -86.5t-59 -83.5q-29 -26 -64.5 -42.5t-79 -22.5t-71 -7.5t-74.5 -1.5q-102 0 -170 20v234q30 -12 70 -12q66 0 94 28q27 27 27 97v655h-512v-551h-355v1366h355z" />
    <glyph glyph-name="uni04C8" unicode="&#x4c8;" horiz-adv-x="1185" 
d="M113 0v915h327v-309h305v309h328v-1060q0 -80 -16.5 -142t-71.5 -112q-49 -45 -109 -58.5t-139 -13.5q-99 0 -180 16v232q29 -13 61 -13q72 0 101 31q26 28 26 113v440h-305v-348h-327z" />
    <glyph glyph-name="uni04D0" unicode="&#x4d0;" horiz-adv-x="1454" 
d="M1061 0l-84 229h-496l-92 -229h-375l525 1366h387l514 -1366h-379zM580 500h303l-154 442zM915 1833l238 -90q-50 -135 -168 -199q-95 -53 -262 -53q-159 0 -258 53q-118 64 -168 199l238 90q20 -65 65 -96q44 -33 125 -33q78 0 125 33q45 31 65 96z" />
    <glyph glyph-name="uni04D1" unicode="&#x4d1;" horiz-adv-x="1261" 
d="M821 827v88h328v-915h-328v100q-96 -131 -284 -131q-191 0 -330 146q-131 140 -131 336q0 225 141 366q60 60 146.5 94.5t183.5 34.5q166 0 274 -119zM621 668q-81 0 -144 -60q-65 -62 -65 -149q0 -90 63 -150q28 -26 68 -43.5t80 -17.5q84 0 147 63q61 61 61 148
q0 88 -63 149q-64 60 -147 60zM793 1384l219 -77q-34 -123 -140 -189q-91 -57 -237 -57q-147 0 -238 57q-105 65 -139 189l219 77q15 -54 47 -86q39 -41 111 -41q71 0 110 41q34 34 48 86z" />
    <glyph glyph-name="uni04D2" unicode="&#x4d2;" horiz-adv-x="1454" 
d="M1061 0l-84 229h-496l-92 -229h-375l525 1366h387l514 -1366h-379zM580 500h303l-154 442zM958 1481q-72 0 -124 55q-52 58 -52 123q0 63 54 125q53 53 122 53q72 0 123 -51q56 -56 56 -127q0 -68 -54 -125q-53 -53 -125 -53zM494 1481q-73 0 -125 55q-52 58 -52 123
q0 63 54 125q53 53 123 53q71 0 122 -51q56 -56 56 -127q0 -68 -54 -125q-53 -53 -124 -53z" />
    <glyph glyph-name="uni04D3" unicode="&#x4d3;" horiz-adv-x="1261" 
d="M821 827v88h328v-915h-328v100q-96 -131 -284 -131q-191 0 -330 146q-131 140 -131 336q0 225 141 366q60 60 146.5 94.5t183.5 34.5q166 0 274 -119zM621 668q-81 0 -144 -60q-65 -62 -65 -149q0 -90 63 -150q28 -26 68 -43.5t80 -17.5q84 0 147 63q61 61 61 148
q0 88 -63 149q-64 60 -147 60zM866 1071q-73 0 -125 55q-51 57 -51 123q0 64 53 125q53 53 123 53q72 0 123 -51q55 -55 55 -127q0 -69 -53 -125q-53 -53 -125 -53zM401 1071q-73 0 -125 55q-51 57 -51 123q0 63 54 125q53 53 122 53q72 0 123 -51q56 -56 56 -127
q0 -68 -54 -125q-53 -53 -125 -53z" />
    <glyph glyph-name="uni04D4" unicode="&#x4d4;" horiz-adv-x="1892" 
d="M1055 0l-88 240h-494l-86 -240h-373l527 1366h835l109 -301h-449l84 -227h449l112 -301h-450l90 -236h446l111 -301h-823zM571 510h299l-145 403z" />
    <glyph glyph-name="uni04D5" unicode="&#x4d5;" horiz-adv-x="1757" 
d="M1681 406h-686q0 -96 62 -158q51 -51 147 -51q68 0 103 26q29 19 47 60h313q-45 -144 -166 -232q-115 -82 -301 -82q-144 0 -244 54q-84 45 -125 124q-66 -83 -163 -129q-106 -45 -213 -45q-94 0 -172.5 28.5t-128.5 78.5q-78 78 -78 188q0 119 80 199q104 104 303 104
q127 0 233 -47v23q0 69 -43 112q-54 54 -176 54q-120 0 -254 -51v243q150 43 273 43q114 0 190 -35q96 -44 149 -127q58 75 140 117q94 45 213 45q114 0 209 -35.5t155 -95.5q133 -133 133 -385v-26zM1004 592h376q-13 62 -55 98q-57 51 -137 51q-70 0 -121 -45
q-45 -42 -63 -104zM541 389q-79 0 -117 -29q-33 -24 -33 -69q0 -44 39 -70q42 -31 109 -31q54 0 106 25q55 28 55 76q0 21 -14 42t-35 32q-46 24 -110 24z" />
    <glyph glyph-name="uni04D6" unicode="&#x4d6;" horiz-adv-x="1001" 
d="M920 1366v-301h-422v-227h399v-301h-399v-236h422v-301h-777v1366h777zM692 1833l238 -90q-50 -135 -168 -199q-95 -53 -262 -53q-159 0 -258 53q-118 64 -168 199l237 90q20 -64 66 -96q44 -33 125 -33q78 0 125 33q45 31 65 96z" />
    <glyph glyph-name="uni04D7" unicode="&#x4d7;" horiz-adv-x="1159" 
d="M1083 432v-35h-682q0 -40 15 -82.5t43 -70.5q45 -45 135 -45q63 0 106 24q40 24 58 62h313q-31 -112 -110 -189q-131 -127 -373 -127q-239 0 -379 140q-135 135 -135 346q0 220 137 354q137 133 375 133q218 0 352 -125q145 -138 145 -385zM412 586h370q-13 58 -53 98
q-49 49 -135 49q-84 0 -133 -49q-41 -45 -49 -98zM772 1384l219 -77q-34 -124 -139 -189q-91 -57 -238 -57q-146 0 -237 57q-105 65 -139 189l219 77q15 -54 47 -86q39 -41 110 -41q72 0 111 41q32 32 47 86z" />
    <glyph glyph-name="uni04D8" unicode="&#x4d8;" horiz-adv-x="1572" 
d="M481 909l-366 72q80 193 256 305q175 111 405 111q167 0 299.5 -55.5t218.5 -143.5q91 -93 144 -223.5t53 -282.5q0 -323 -195 -522q-61 -63 -131 -105.5t-141.5 -62t-129 -26.5t-124.5 -7q-65 0 -121 7t-120.5 25t-127 55.5t-116.5 93.5q-203 208 -203 575v37h1051
q-19 117 -101 199q-103 100 -268 100q-92 0 -172 -45q-71 -39 -111 -107zM1122 532h-671q13 -103 86 -170q84 -79 235 -79q145 0 238 73q88 71 112 176z" />
    <glyph glyph-name="afii10846" unicode="&#x4d9;" horiz-adv-x="1159" 
d="M74 473v55h682q-3 41 -21.5 79t-46.5 61q-54 45 -139 45q-58 0 -109 -29q-39 -22 -63 -66l-279 58q57 125 174 194q118 72 287 72q254 0 397 -147q127 -131 127 -336q0 -108 -36.5 -201t-100.5 -156q-137 -133 -375 -133q-218 0 -352 125q-145 138 -145 379zM745 346
h-370q5 -69 53 -117q51 -51 137 -51q84 0 131 51q43 43 49 117z" />
    <glyph glyph-name="uni04DA" unicode="&#x4da;" horiz-adv-x="1572" 
d="M481 909l-366 72q80 193 256 305q175 111 405 111q167 0 299.5 -55.5t218.5 -143.5q91 -93 144 -223.5t53 -282.5q0 -323 -195 -522q-61 -63 -131 -105.5t-141.5 -62t-129 -26.5t-124.5 -7q-65 0 -121 7t-120.5 25t-127 55.5t-116.5 93.5q-203 208 -203 575v37h1051
q-19 117 -101 199q-103 100 -268 100q-92 0 -172 -45q-71 -39 -111 -107zM1122 532h-671q13 -103 86 -170q84 -79 235 -79q145 0 238 73q88 71 112 176zM1010 1481q-73 0 -125 55q-51 57 -51 123q0 64 53 125q53 53 123 53q72 0 123 -51q55 -55 55 -127q0 -69 -53 -125
q-53 -53 -125 -53zM545 1481q-73 0 -125 55q-51 57 -51 123q0 64 53 125q53 53 123 53q72 0 123 -51q55 -55 55 -127q0 -69 -53 -125q-53 -53 -125 -53z" />
    <glyph glyph-name="uni04DB" unicode="&#x4db;" horiz-adv-x="1159" 
d="M74 473v55h682q-3 41 -21.5 79t-46.5 61q-54 45 -139 45q-58 0 -109 -29q-39 -22 -63 -66l-279 58q57 125 174 194q118 72 287 72q254 0 397 -147q127 -131 127 -336q0 -108 -36.5 -201t-100.5 -156q-137 -133 -375 -133q-218 0 -352 125q-145 138 -145 379zM745 346
h-370q5 -69 53 -117q51 -51 137 -51q84 0 131 51q43 43 49 117zM819 1071q-73 0 -125 55q-51 57 -51 123q0 64 53 125q53 53 123 53q72 0 123 -51q55 -55 55 -127q0 -69 -53 -125q-53 -53 -125 -53zM354 1071q-73 0 -125 55q-51 57 -51 123q0 64 53 125q53 53 123 53
q72 0 123 -51q55 -55 55 -127q0 -69 -53 -125q-53 -53 -125 -53z" />
    <glyph glyph-name="uni04DC" unicode="&#x4dc;" horiz-adv-x="1986" 
d="M817 0v600l-368 -600h-447l498 696l-457 670h410l364 -594v594h352v-594l365 594h410l-457 -670l498 -696h-447l-369 600v-600h-352zM1225 1481q-73 0 -125 55q-51 57 -51 123q0 64 53 125q53 53 123 53q72 0 123 -51q55 -55 55 -127q0 -69 -53 -125q-53 -53 -125 -53z
M760 1481q-73 0 -125 55q-51 57 -51 123q0 64 53 125q53 53 123 53q72 0 123 -51q55 -55 55 -127q0 -69 -53 -125q-53 -53 -125 -53z" />
    <glyph glyph-name="uni04DD" unicode="&#x4dd;" horiz-adv-x="1675" 
d="M676 0v397l-273 -397h-401l373 477l-318 438h373l246 -383v383h323v-383l246 383h373l-318 -438l373 -477h-401l-273 397v-397h-323zM1073 1071q-73 0 -125 55q-51 57 -51 123q0 64 53 125q53 53 123 53q72 0 123 -51q55 -55 55 -127q0 -69 -53 -125q-53 -53 -125 -53z
M608 1071q-73 0 -125 55q-51 57 -51 123q0 64 53 125q53 53 123 53q72 0 123 -51q55 -55 55 -127q0 -69 -53 -125q-53 -53 -125 -53z" />
    <glyph glyph-name="uni04DE" unicode="&#x4de;" horiz-adv-x="1222" 
d="M268 989l-137 260q78 54 188 97q138 51 289 51q240 0 367 -123q102 -97 102 -258q0 -113 -59 -197q-49 -70 -127 -108v-6q87 -26 151 -87q99 -94 99 -229q0 -100 -45.5 -185.5t-124.5 -140.5q-135 -94 -385 -94q-185 0 -330 60q-123 51 -225 143l180 258q62 -70 143 -115
q86 -45 185 -45q94 0 149 35q64 39 64 113q0 62 -62 102q-52 33 -168 33h-133v274h88q155 0 213 58q35 35 35 86q0 57 -53 96q-49 35 -131 35q-86 0 -160 -37q-53 -25 -113 -76zM842 1481q-73 0 -125 55q-51 57 -51 123q0 64 53 125q53 53 123 53q72 0 123 -51
q55 -55 55 -127q0 -69 -53 -125q-53 -53 -125 -53zM377 1481q-73 0 -125 55q-51 57 -51 123q0 64 53 125q53 53 123 53q72 0 123 -51q55 -55 55 -127q0 -69 -53 -125q-53 -53 -125 -53z" />
    <glyph glyph-name="uni04DF" unicode="&#x4df;" horiz-adv-x="950" 
d="M178 633l-108 213q69 38 151 63q119 37 234 37q225 0 327 -102q66 -66 66 -162q0 -85 -45 -137q-39 -46 -92 -68v-4q76 -12 127 -63q55 -55 55 -142q0 -55 -22.5 -108t-61.5 -90q-104 -101 -352 -101q-129 0 -238 35q-97 31 -182 84l121 227q55 -43 114 -69
q71 -29 144 -29q61 0 98 16q19 9 31 27t12 35q0 35 -37 51q-32 14 -106 14h-113v213h92q60 0 103 15t43 53q0 36 -39 53q-34 17 -94 17q-59 0 -125 -25q-58 -21 -103 -53zM711 1071q-73 0 -125 55q-51 57 -51 123q0 64 53 125q53 53 123 53q72 0 123 -51q55 -55 55 -127
q0 -69 -53 -125q-53 -53 -125 -53zM246 1071q-73 0 -125 55q-51 57 -51 123q0 64 53 125q53 53 123 53q72 0 123 -51q55 -55 55 -127q0 -69 -53 -125q-53 -53 -125 -53z" />
    <glyph glyph-name="uni04E2" unicode="&#x4e2;" horiz-adv-x="1517" 
d="M143 1366h357v-860l512 860h362v-1366h-356v860l-512 -860h-363v1366zM373 1534v201h770v-201h-770z" />
    <glyph glyph-name="uni04E3" unicode="&#x4e3;" horiz-adv-x="1200" 
d="M113 915h327v-471l363 471h284v-915h-327v483l-359 -483h-288v915zM188 1104v201h811v-201h-811z" />
    <glyph glyph-name="uni04E4" unicode="&#x4e4;" horiz-adv-x="1517" 
d="M143 1366h357v-860l512 860h362v-1366h-356v860l-512 -860h-363v1366zM989 1481q-73 0 -125 55q-51 57 -51 123q0 64 53 125q53 53 123 53q72 0 123 -51q55 -55 55 -127q0 -69 -53 -125q-53 -53 -125 -53zM524 1481q-73 0 -125 55q-51 57 -51 123q0 64 53 125
q53 53 123 53q72 0 123 -51q55 -55 55 -127q0 -69 -53 -125q-53 -53 -125 -53z" />
    <glyph glyph-name="uni04E5" unicode="&#x4e5;" horiz-adv-x="1200" 
d="M113 915h327v-471l363 471h284v-915h-327v483l-359 -483h-288v915zM834 1071q-73 0 -125 55q-52 58 -52 123q0 63 54 125q53 53 123 53q71 0 122 -51q56 -56 56 -127q0 -68 -54 -125q-53 -53 -124 -53zM369 1071q-73 0 -125 55q-51 57 -51 123q0 64 53 125q53 53 123 53
q72 0 123 -51q55 -55 55 -127q0 -69 -53 -125q-53 -53 -125 -53z" />
    <glyph glyph-name="uni04E6" unicode="&#x4e6;" horiz-adv-x="1671" 
d="M1589 682q0 -140 -54.5 -274.5t-160.5 -235.5q-103 -99 -243.5 -151t-294.5 -52t-295 52.5t-244 150.5q-106 101 -160.5 235.5t-54.5 274.5q0 141 54.5 276.5t160.5 235.5q103 98 244 150.5t295 52.5t294.5 -52t243.5 -151q106 -100 160.5 -235.5t54.5 -276.5zM836 1053
q-77 0 -150 -27.5t-127 -81.5q-108 -105 -108 -268q0 -150 108 -254q114 -109 277 -109q167 0 274 107q50 50 80.5 118.5t30.5 143.5q0 76 -30.5 145t-80.5 117q-56 53 -128.5 81t-145.5 28zM1069 1481q-73 0 -125 55q-51 57 -51 123q0 64 53 125q53 53 123 53q72 0 123 -51
q55 -55 55 -127q0 -69 -53 -125q-53 -53 -125 -53zM604 1481q-73 0 -125 55q-51 57 -51 123q0 64 53 125q53 53 123 53q72 0 123 -51q55 -55 55 -127q0 -69 -53 -125q-53 -53 -125 -53z" />
    <glyph glyph-name="uni04E7" unicode="&#x4e7;" horiz-adv-x="1251" 
d="M627 668q-39 0 -79.5 -16.5t-68.5 -43.5q-63 -60 -63 -149q0 -83 63 -146q61 -61 148 -61q84 0 145 61q64 61 64 146q0 38 -17 78.5t-47 70.5q-28 27 -67.5 43.5t-77.5 16.5zM1176 459q0 -199 -142 -338q-155 -152 -409 -152t-408 152q-141 138 -141 338q0 199 141 336
q155 151 408 151q250 0 409 -151q142 -138 142 -336zM864 1071q-73 0 -125 55q-51 57 -51 123q0 64 53 125q53 53 123 53q72 0 123 -51q55 -55 55 -127q0 -69 -53 -125q-53 -53 -125 -53zM399 1071q-73 0 -125 55q-51 57 -51 123q0 64 53 125q53 53 123 53q72 0 123 -51
q56 -56 56 -127q0 -68 -54 -125q-53 -53 -125 -53z" />
    <glyph glyph-name="uni04E8" unicode="&#x4e8;" horiz-adv-x="1671" 
d="M487 829h693q-38 101 -113 162q-94 78 -233 78q-129 0 -226 -74q-90 -65 -121 -166zM1196 571h-725q30 -107 109 -180q107 -94 254 -94q135 0 241 86q92 74 121 188zM1589 682q0 -140 -54.5 -274.5t-160.5 -235.5q-103 -99 -243.5 -151t-294.5 -52t-295 52.5t-244 150.5
q-106 101 -160.5 235.5t-54.5 274.5q0 141 54.5 276.5t160.5 235.5q103 98 244 150.5t295 52.5t294.5 -52t243.5 -151q106 -100 160.5 -235.5t54.5 -276.5z" />
    <glyph glyph-name="uni04E9" unicode="&#x4e9;" horiz-adv-x="1267" 
d="M436 545h393q-18 57 -61 96q-51 45 -135 45q-92 0 -141 -49q-42 -39 -56 -92zM836 401h-404q17 -68 70 -110q55 -45 133 -45q80 0 135 49q52 52 66 106zM1192 465q0 -94 -36 -183t-107 -159q-72 -71 -179 -112.5t-237 -41.5q-128 0 -234 41.5t-180 112.5q-71 70 -107 159
t-36 183q0 101 39 189t104 151q160 153 414 153q130 0 237 -41t179 -112q65 -63 104 -151t39 -189z" />
    <glyph glyph-name="uni04EA" unicode="&#x4ea;" horiz-adv-x="1671" 
d="M487 829h693q-38 101 -113 162q-94 78 -233 78q-129 0 -226 -74q-90 -65 -121 -166zM1196 571h-725q30 -107 109 -180q107 -94 254 -94q135 0 241 86q92 74 121 188zM1589 682q0 -140 -54.5 -274.5t-160.5 -235.5q-103 -99 -243.5 -151t-294.5 -52t-295 52.5t-244 150.5
q-106 101 -160.5 235.5t-54.5 274.5q0 141 54.5 276.5t160.5 235.5q103 98 244 150.5t295 52.5t294.5 -52t243.5 -151q106 -100 160.5 -235.5t54.5 -276.5zM1069 1481q-73 0 -125 55q-51 57 -51 123q0 64 53 125q53 53 123 53q72 0 123 -51q55 -55 55 -127q0 -69 -53 -125
q-53 -53 -125 -53zM604 1481q-73 0 -125 55q-51 57 -51 123q0 64 53 125q53 53 123 53q72 0 123 -51q55 -55 55 -127q0 -69 -53 -125q-53 -53 -125 -53z" />
    <glyph glyph-name="uni04EB" unicode="&#x4eb;" horiz-adv-x="1267" 
d="M436 545h393q-18 57 -61 96q-51 45 -135 45q-92 0 -141 -49q-42 -39 -56 -92zM836 401h-404q17 -68 70 -110q55 -45 133 -45q80 0 135 49q52 52 66 106zM1192 465q0 -94 -36 -183t-107 -159q-72 -71 -179 -112.5t-237 -41.5q-128 0 -234 41.5t-180 112.5q-71 70 -107 159
t-36 183q0 101 39 189t104 151q160 153 414 153q130 0 237 -41t179 -112q65 -63 104 -151t39 -189zM864 1071q-73 0 -125 55q-51 57 -51 123q0 64 53 125q53 53 123 53q72 0 123 -51q55 -55 55 -127q0 -69 -53 -125q-53 -53 -125 -53zM399 1071q-73 0 -125 55
q-51 57 -51 123q0 64 53 125q53 53 123 53q72 0 123 -51q56 -56 56 -127q0 -68 -54 -125q-53 -53 -125 -53z" />
    <glyph glyph-name="uni04EE" unicode="&#x4ee;" horiz-adv-x="1275" 
d="M0 1366h397l260 -608l228 608h379l-615 -1366h-375l191 383zM252 1534v201h770v-201h-770z" />
    <glyph glyph-name="uni04EF" unicode="&#x4ef;" horiz-adv-x="1236" 
d="M135 -469l307 594l-442 790h381l244 -469l237 469h375l-735 -1384h-367zM217 1104v201h811v-201h-811z" />
    <glyph glyph-name="uni04F0" unicode="&#x4f0;" horiz-adv-x="1275" 
d="M0 1366h397l260 -608l228 608h379l-615 -1366h-375l191 383zM868 1481q-73 0 -125 55q-51 57 -51 123q0 64 53 125q53 53 123 53q72 0 123 -51q56 -56 56 -127q0 -68 -54 -125q-53 -53 -125 -53zM403 1481q-72 0 -124 55q-52 58 -52 123q0 63 54 125q53 53 122 53
q72 0 123 -51q56 -56 56 -127q0 -68 -54 -125q-53 -53 -125 -53z" />
    <glyph glyph-name="uni04F1" unicode="&#x4f1;" horiz-adv-x="1236" 
d="M135 -469l307 594l-442 790h381l244 -469l237 469h375l-735 -1384h-367zM854 1071q-73 0 -125 55q-51 57 -51 123q0 64 53 125q53 53 123 53q72 0 123 -51q55 -55 55 -127q0 -69 -53 -125q-53 -53 -125 -53zM389 1071q-73 0 -125 55q-51 57 -51 123q0 64 53 125
q53 53 123 53q72 0 123 -51q55 -55 55 -127q0 -69 -53 -125q-53 -53 -125 -53z" />
    <glyph glyph-name="uni04F2" unicode="&#x4f2;" horiz-adv-x="1275" 
d="M0 1366h397l260 -608l228 608h379l-615 -1366h-375l191 383zM573 1903l170 -150l-280 -278l-111 112zM928 1903l172 -150l-281 -278l-112 112z" />
    <glyph glyph-name="uni04F3" unicode="&#x4f3;" horiz-adv-x="1236" 
d="M135 -469l307 594l-442 790h381l244 -469l237 469h375l-735 -1384h-367zM551 1493l170 -150l-281 -278l-110 113zM905 1493l172 -150l-280 -278l-113 113z" />
    <glyph glyph-name="uni04F4" unicode="&#x4f4;" horiz-adv-x="1351" 
d="M852 0v537q-141 -21 -285 -21q-264 0 -372 102q-109 102 -109 324v424h356v-371q0 -100 41 -141q43 -43 168 -43q109 0 201 14v541h356v-1366h-356zM866 1481q-73 0 -125 55q-51 57 -51 123q0 64 53 125q53 53 123 53q72 0 123 -51q55 -55 55 -127q0 -69 -53 -125
q-53 -53 -125 -53zM401 1481q-73 0 -125 55q-51 57 -51 123q0 63 54 125q53 53 122 53q72 0 123 -51q56 -56 56 -127q0 -68 -54 -125q-53 -53 -125 -53z" />
    <glyph glyph-name="uni04F5" unicode="&#x4f5;" horiz-adv-x="1101" 
d="M662 0v299q-95 -23 -201 -23q-204 0 -293 91q-82 82 -82 260v288h315v-266q0 -75 35 -104q29 -25 111 -25q64 0 115 15v380h327v-915h-327zM784 1071q-73 0 -125 55q-51 57 -51 123q0 63 54 125q53 53 122 53q72 0 123 -51q56 -56 56 -127q0 -68 -54 -125
q-53 -53 -125 -53zM319 1071q-72 0 -124 55q-52 58 -52 123q0 63 54 125q53 53 122 53q72 0 123 -51q56 -56 56 -127q0 -68 -54 -125q-53 -53 -125 -53z" />
    <glyph glyph-name="uni04F8" unicode="&#x4f8;" horiz-adv-x="1800" 
d="M1300 0v1366h357v-1366h-357zM143 0v1366h357v-532h172q52 0 95 -3.5t102 -15t113 -39t97 -69.5q109 -107 109 -289t-103 -287q-42 -42 -96 -70t-115.5 -40.5t-111 -16.5t-111.5 -4h-508zM500 274h137q113 0 154 41q36 36 36 103q0 65 -39 100q-43 41 -151 41h-137v-285z
M1130 1481q-72 0 -124 55q-52 58 -52 123q0 63 54 125q53 53 122 53q72 0 123 -51q56 -56 56 -127q0 -68 -54 -125q-53 -53 -125 -53zM666 1481q-73 0 -125 55q-52 58 -52 123q0 63 54 125q53 53 123 53q71 0 122 -51q56 -56 56 -127q0 -69 -53 -125q-53 -53 -125 -53z" />
    <glyph glyph-name="uni04F9" unicode="&#x4f9;" horiz-adv-x="1519" 
d="M1079 0v915h328v-915h-328zM440 610h224q158 0 245 -82q82 -80 82 -219q0 -141 -78 -219q-43 -43 -110.5 -66.5t-138.5 -23.5h-551v915h327v-305zM440 213h123q24 0 50 8.5t38 20.5q23 23 23 65q0 45 -25 66q-31 24 -90 24h-119v-184zM995 1071q-73 0 -125 55
q-51 57 -51 123q0 64 53 125q53 53 123 53q72 0 123 -51q56 -56 56 -127q0 -68 -54 -125q-53 -53 -125 -53zM530 1071q-72 0 -124 55q-52 58 -52 123q0 63 54 125q53 53 122 53q72 0 123 -51q56 -56 56 -127q0 -68 -54 -125q-53 -53 -125 -53z" />
    <glyph glyph-name="uni1E9E" unicode="&#x1e9e;" horiz-adv-x="1280" 
d="M498 961v-961h-355v864q0 245 133 389q135 144 363 144q187 0 307 -82q158 -108 178 -303l-190 -240q112 -37 180 -110q85 -91 82 -218q-1 -108 -36.5 -187.5t-112.5 -152.5q-75 -70 -185 -98t-256 -33v277q88 5 146 41q86 55 86 151q0 92 -78 140q-60 37 -154 41v141
l162 215q0 69 -39 111q-34 34 -94 34t-96 -39q-41 -44 -41 -124z" />
    <glyph glyph-name="uni2010" unicode="&#x2010;" horiz-adv-x="722" 
d="M102 414v272h519v-272h-519z" />
    <glyph glyph-name="uni2011" unicode="&#x2011;" horiz-adv-x="722" 
d="M102 414v272h519v-272h-519z" />
    <glyph glyph-name="figuredash" unicode="&#x2012;" horiz-adv-x="1175" 
d="M143 563v271h889v-271h-889z" />
    <glyph glyph-name="endash" unicode="&#x2013;" horiz-adv-x="1175" 
d="M143 408v270h889v-270h-889z" />
    <glyph glyph-name="emdash" unicode="&#x2014;" horiz-adv-x="1857" 
d="M143 408v270h1571v-270h-1571z" />
    <glyph glyph-name="afii00208" unicode="&#x2015;" horiz-adv-x="1857" 
d="M143 408v270h1571v-270h-1571z" />
    <glyph glyph-name="quoteleft" unicode="&#x2018;" horiz-adv-x="706" 
d="M639 1366l-236 -602h-307l332 602h211z" />
    <glyph glyph-name="quoteright" unicode="&#x2019;" horiz-adv-x="917" 
d="M68 764l235 602h309l-333 -602h-211z" />
    <glyph glyph-name="quotesinglbase" unicode="&#x201a;" horiz-adv-x="940" 
d="M68 -305l258 647h309l-356 -647h-211z" />
    <glyph glyph-name="quotedblleft" unicode="&#x201c;" horiz-adv-x="1171" 
d="M1104 1366l-236 -602h-309l334 602h211zM639 1366l-236 -602h-307l332 602h211z" />
    <glyph glyph-name="quotedblright" unicode="&#x201d;" horiz-adv-x="1382" 
d="M68 764l235 602h309l-333 -602h-211zM532 764l236 602h307l-332 -602h-211z" />
    <glyph glyph-name="quotedblbase" unicode="&#x201e;" horiz-adv-x="1398" 
d="M532 -305l252 647h308l-349 -647h-211zM68 -305l251 647h308l-348 -647h-211z" />
    <glyph glyph-name="dagger" unicode="&#x2020;" horiz-adv-x="1228" 
d="M463 1087v406h301v-406h321v-260h-321v-1212h-301v1212h-320v260h320z" />
    <glyph glyph-name="daggerdbl" unicode="&#x2021;" horiz-adv-x="1228" 
d="M465 1087v406h301v-406h317v-260h-317v-442h317v-260h-317v-510h-301v510h-320v260h320v442h-320v260h320z" />
    <glyph glyph-name="bullet" unicode="&#x2022;" horiz-adv-x="2048" 
d="M741 696q0 119 82 201q86 86 201 86q113 0 197 -84q86 -86 86 -203q0 -119 -93 -209q-83 -77 -190 -77q-110 0 -193 77q-90 83 -90 209z" />
    <glyph glyph-name="ellipsis" unicode="&#x2026;" horiz-adv-x="1861" 
d="M309 387q87 0 150 -63t63 -150q0 -86 -63 -149q-64 -64 -150 -64q-85 0 -151 66q-60 60 -60 147q0 88 62 150q63 63 149 63zM930 387q86 0 149 -63q64 -64 64 -150q0 -85 -64 -149t-149 -64q-86 0 -152 66q-59 59 -59 147q0 89 61 150q63 63 150 63zM1550 387
q87 0 150 -63t63 -150q0 -86 -63 -149q-64 -64 -150 -64q-85 0 -151 66q-60 60 -60 147q0 88 62 150q63 63 149 63z" />
    <glyph glyph-name="perthousand" unicode="&#x2030;" horiz-adv-x="2711" 
d="M438 711q-181 0 -284 108q-86 92 -86 221q0 66 22 127.5t62 104.5q97 108 286 108q187 0 291 -108q86 -90 86 -225q0 -136 -88 -228q-103 -108 -289 -108zM432 0l791 1366h178l-793 -1366h-176zM442 1200q-68 0 -112 -47q-41 -44 -41 -106q0 -71 53 -117q40 -37 100 -37
q63 0 109 43q45 45 45 111q0 68 -49 114q-42 39 -105 39zM1393 473q-69 0 -113 -47q-41 -44 -41 -107q0 -70 53 -116q40 -37 101 -37q62 0 108 43q45 45 45 110q0 69 -49 115q-42 39 -104 39zM1389 -16q-182 0 -285 108q-86 92 -86 221q0 66 22 127.5t62 104.5
q97 108 287 108q186 0 290 -108q86 -90 86 -226q0 -135 -88 -227q-103 -108 -288 -108zM2271 473q-68 0 -112 -47q-41 -44 -41 -107q0 -70 53 -116q40 -37 100 -37q63 0 109 43q45 45 45 110q0 69 -49 115q-42 39 -105 39zM2267 -16q-182 0 -285 108q-86 92 -86 221
q0 66 22 127.5t62 104.5q97 108 287 108q187 0 291 -108q86 -90 86 -226q0 -135 -88 -227q-103 -108 -289 -108z" />
    <glyph glyph-name="guilsinglleft" unicode="&#x2039;" horiz-adv-x="636" 
d="M549 786l-227 -319l233 -315l-186 -132l-312 447l312 444z" />
    <glyph glyph-name="guilsinglright" unicode="&#x203a;" horiz-adv-x="636" 
d="M78 152l233 315l-227 319l180 125l311 -444l-311 -447z" />
    <glyph glyph-name="fraction" unicode="&#x2044;" horiz-adv-x="559" 
d="M-205 0l791 1366h178l-793 -1366h-176z" />
    <glyph glyph-name="Euro" unicode="&#x20ac;" horiz-adv-x="1228" 
d="M1114 389v-342q-155 -78 -352 -78q-117 0 -232.5 31t-199.5 96q-75 59 -130.5 149.5t-80.5 194.5h-160l74 185h61q-3 47 0 102h-135l74 184h88q52 220 229 351q180 133 453 133q212 0 373 -90l-119 -299q-122 77 -269 77q-122 0 -200 -45q-83 -45 -111 -127h549l-74 -184
h-512q-5 -44 2 -102h469l-73 -185h-351q32 -74 115 -118q78 -41 195 -41q194 0 317 108z" />
    <glyph glyph-name="uni20B4" unicode="&#x20b4;" horiz-adv-x="1228" 
d="M303 1020l-137 260q221 117 491 117q205 0 304 -72q110 -83 110 -219q0 -98 -59 -164h139v-215h-309l-135 -127h444v-213h-598q-27 -27 -27 -63q0 -45 37 -64q40 -22 127 -22q164 0 307 75l142 -241q-122 -59 -265.5 -87t-271.5 -28q-213 0 -323 68q-127 82 -127 223
q0 77 49 139h-119v213h264l135 127h-399v215h569q33 33 33 74q0 43 -33 69q-41 27 -106 27q-122 0 -242 -92z" />
    <glyph glyph-name="uni20B6" unicode="&#x20b6;" horiz-adv-x="1228" 
d="M176 1366h565q225 0 351 -117q122 -112 122 -313q0 -60 -7 -107t-35 -107t-78 -106q-123 -114 -340 -114h-224v-115h381v-213h-381v-174h-354v174h-168v213h168v115h-168v246h168v618zM530 1079v-331h119q103 0 150 43q45 41 45 124q0 74 -41 115q-49 49 -152 49h-121z
" />
    <glyph glyph-name="uni20B6" unicode="&#x20cf;" horiz-adv-x="1228" 
d="M176 1366h565q225 0 351 -117q122 -112 122 -313q0 -60 -7 -107t-35 -107t-78 -106q-123 -114 -340 -114h-224v-115h381v-213h-381v-174h-354v174h-168v213h168v115h-168v246h168v618zM530 1079v-331h119q103 0 150 43q45 41 45 124q0 74 -41 115q-49 49 -152 49h-121z
" />
    <glyph glyph-name="uni20B6" unicode="&#x20ce;" horiz-adv-x="1228" 
d="M176 1366h565q225 0 351 -117q122 -112 122 -313q0 -60 -7 -107t-35 -107t-78 -106q-123 -114 -340 -114h-224v-115h381v-213h-381v-174h-354v174h-168v213h168v115h-168v246h168v618zM530 1079v-331h119q103 0 150 43q45 41 45 124q0 74 -41 115q-49 49 -152 49h-121z
" />
    <glyph glyph-name="uni20B6" unicode="&#x20cd;" horiz-adv-x="1228" 
d="M176 1366h565q225 0 351 -117q122 -112 122 -313q0 -60 -7 -107t-35 -107t-78 -106q-123 -114 -340 -114h-224v-115h381v-213h-381v-174h-354v174h-168v213h168v115h-168v246h168v618zM530 1079v-331h119q103 0 150 43q45 41 45 124q0 74 -41 115q-49 49 -152 49h-121z
" />
    <glyph glyph-name="uni20B6" unicode="&#x20cc;" horiz-adv-x="1228" 
d="M176 1366h565q225 0 351 -117q122 -112 122 -313q0 -60 -7 -107t-35 -107t-78 -106q-123 -114 -340 -114h-224v-115h381v-213h-381v-174h-354v174h-168v213h168v115h-168v246h168v618zM530 1079v-331h119q103 0 150 43q45 41 45 124q0 74 -41 115q-49 49 -152 49h-121z
" />
    <glyph glyph-name="uni20B6" unicode="&#x20cb;" horiz-adv-x="1228" 
d="M176 1366h565q225 0 351 -117q122 -112 122 -313q0 -60 -7 -107t-35 -107t-78 -106q-123 -114 -340 -114h-224v-115h381v-213h-381v-174h-354v174h-168v213h168v115h-168v246h168v618zM530 1079v-331h119q103 0 150 43q45 41 45 124q0 74 -41 115q-49 49 -152 49h-121z
" />
    <glyph glyph-name="uni20B6" unicode="&#x20ca;" horiz-adv-x="1228" 
d="M176 1366h565q225 0 351 -117q122 -112 122 -313q0 -60 -7 -107t-35 -107t-78 -106q-123 -114 -340 -114h-224v-115h381v-213h-381v-174h-354v174h-168v213h168v115h-168v246h168v618zM530 1079v-331h119q103 0 150 43q45 41 45 124q0 74 -41 115q-49 49 -152 49h-121z
" />
    <glyph glyph-name="uni20B6" unicode="&#x20c9;" horiz-adv-x="1228" 
d="M176 1366h565q225 0 351 -117q122 -112 122 -313q0 -60 -7 -107t-35 -107t-78 -106q-123 -114 -340 -114h-224v-115h381v-213h-381v-174h-354v174h-168v213h168v115h-168v246h168v618zM530 1079v-331h119q103 0 150 43q45 41 45 124q0 74 -41 115q-49 49 -152 49h-121z
" />
    <glyph glyph-name="uni20B6" unicode="&#x20c8;" horiz-adv-x="1228" 
d="M176 1366h565q225 0 351 -117q122 -112 122 -313q0 -60 -7 -107t-35 -107t-78 -106q-123 -114 -340 -114h-224v-115h381v-213h-381v-174h-354v174h-168v213h168v115h-168v246h168v618zM530 1079v-331h119q103 0 150 43q45 41 45 124q0 74 -41 115q-49 49 -152 49h-121z
" />
    <glyph glyph-name="uni20B6" unicode="&#x20c7;" horiz-adv-x="1228" 
d="M176 1366h565q225 0 351 -117q122 -112 122 -313q0 -60 -7 -107t-35 -107t-78 -106q-123 -114 -340 -114h-224v-115h381v-213h-381v-174h-354v174h-168v213h168v115h-168v246h168v618zM530 1079v-331h119q103 0 150 43q45 41 45 124q0 74 -41 115q-49 49 -152 49h-121z
" />
    <glyph glyph-name="uni20B6" unicode="&#x20c6;" horiz-adv-x="1228" 
d="M176 1366h565q225 0 351 -117q122 -112 122 -313q0 -60 -7 -107t-35 -107t-78 -106q-123 -114 -340 -114h-224v-115h381v-213h-381v-174h-354v174h-168v213h168v115h-168v246h168v618zM530 1079v-331h119q103 0 150 43q45 41 45 124q0 74 -41 115q-49 49 -152 49h-121z
" />
    <glyph glyph-name="uni20B6" unicode="&#x20c5;" horiz-adv-x="1228" 
d="M176 1366h565q225 0 351 -117q122 -112 122 -313q0 -60 -7 -107t-35 -107t-78 -106q-123 -114 -340 -114h-224v-115h381v-213h-381v-174h-354v174h-168v213h168v115h-168v246h168v618zM530 1079v-331h119q103 0 150 43q45 41 45 124q0 74 -41 115q-49 49 -152 49h-121z
" />
    <glyph glyph-name="uni20B6" unicode="&#x20c4;" horiz-adv-x="1228" 
d="M176 1366h565q225 0 351 -117q122 -112 122 -313q0 -60 -7 -107t-35 -107t-78 -106q-123 -114 -340 -114h-224v-115h381v-213h-381v-174h-354v174h-168v213h168v115h-168v246h168v618zM530 1079v-331h119q103 0 150 43q45 41 45 124q0 74 -41 115q-49 49 -152 49h-121z
" />
    <glyph glyph-name="uni20B6" unicode="&#x20c3;" horiz-adv-x="1228" 
d="M176 1366h565q225 0 351 -117q122 -112 122 -313q0 -60 -7 -107t-35 -107t-78 -106q-123 -114 -340 -114h-224v-115h381v-213h-381v-174h-354v174h-168v213h168v115h-168v246h168v618zM530 1079v-331h119q103 0 150 43q45 41 45 124q0 74 -41 115q-49 49 -152 49h-121z
" />
    <glyph glyph-name="uni20B6" unicode="&#x20c2;" horiz-adv-x="1228" 
d="M176 1366h565q225 0 351 -117q122 -112 122 -313q0 -60 -7 -107t-35 -107t-78 -106q-123 -114 -340 -114h-224v-115h381v-213h-381v-174h-354v174h-168v213h168v115h-168v246h168v618zM530 1079v-331h119q103 0 150 43q45 41 45 124q0 74 -41 115q-49 49 -152 49h-121z
" />
    <glyph glyph-name="uni20B6" unicode="&#x20c1;" horiz-adv-x="1228" 
d="M176 1366h565q225 0 351 -117q122 -112 122 -313q0 -60 -7 -107t-35 -107t-78 -106q-123 -114 -340 -114h-224v-115h381v-213h-381v-174h-354v174h-168v213h168v115h-168v246h168v618zM530 1079v-331h119q103 0 150 43q45 41 45 124q0 74 -41 115q-49 49 -152 49h-121z
" />
    <glyph glyph-name="uni20B6" unicode="&#x20c0;" horiz-adv-x="1228" 
d="M176 1366h565q225 0 351 -117q122 -112 122 -313q0 -60 -7 -107t-35 -107t-78 -106q-123 -114 -340 -114h-224v-115h381v-213h-381v-174h-354v174h-168v213h168v115h-168v246h168v618zM530 1079v-331h119q103 0 150 43q45 41 45 124q0 74 -41 115q-49 49 -152 49h-121z
" />
    <glyph glyph-name="uni20B6" unicode="&#x20bf;" horiz-adv-x="1228" 
d="M176 1366h565q225 0 351 -117q122 -112 122 -313q0 -60 -7 -107t-35 -107t-78 -106q-123 -114 -340 -114h-224v-115h381v-213h-381v-174h-354v174h-168v213h168v115h-168v246h168v618zM530 1079v-331h119q103 0 150 43q45 41 45 124q0 74 -41 115q-49 49 -152 49h-121z
" />
    <glyph glyph-name="uni20B6" unicode="&#x20be;" horiz-adv-x="1228" 
d="M176 1366h565q225 0 351 -117q122 -112 122 -313q0 -60 -7 -107t-35 -107t-78 -106q-123 -114 -340 -114h-224v-115h381v-213h-381v-174h-354v174h-168v213h168v115h-168v246h168v618zM530 1079v-331h119q103 0 150 43q45 41 45 124q0 74 -41 115q-49 49 -152 49h-121z
" />
    <glyph glyph-name="uni20B6" unicode="&#x20bd;" horiz-adv-x="1228" 
d="M176 1366h565q225 0 351 -117q122 -112 122 -313q0 -60 -7 -107t-35 -107t-78 -106q-123 -114 -340 -114h-224v-115h381v-213h-381v-174h-354v174h-168v213h168v115h-168v246h168v618zM530 1079v-331h119q103 0 150 43q45 41 45 124q0 74 -41 115q-49 49 -152 49h-121z
" />
    <glyph glyph-name="uni20B6" unicode="&#x20bc;" horiz-adv-x="1228" 
d="M176 1366h565q225 0 351 -117q122 -112 122 -313q0 -60 -7 -107t-35 -107t-78 -106q-123 -114 -340 -114h-224v-115h381v-213h-381v-174h-354v174h-168v213h168v115h-168v246h168v618zM530 1079v-331h119q103 0 150 43q45 41 45 124q0 74 -41 115q-49 49 -152 49h-121z
" />
    <glyph glyph-name="uni20B6" unicode="&#x20bb;" horiz-adv-x="1228" 
d="M176 1366h565q225 0 351 -117q122 -112 122 -313q0 -60 -7 -107t-35 -107t-78 -106q-123 -114 -340 -114h-224v-115h381v-213h-381v-174h-354v174h-168v213h168v115h-168v246h168v618zM530 1079v-331h119q103 0 150 43q45 41 45 124q0 74 -41 115q-49 49 -152 49h-121z
" />
    <glyph glyph-name="uni20B6" unicode="&#x20ba;" horiz-adv-x="1228" 
d="M176 1366h565q225 0 351 -117q122 -112 122 -313q0 -60 -7 -107t-35 -107t-78 -106q-123 -114 -340 -114h-224v-115h381v-213h-381v-174h-354v174h-168v213h168v115h-168v246h168v618zM530 1079v-331h119q103 0 150 43q45 41 45 124q0 74 -41 115q-49 49 -152 49h-121z
" />
    <glyph glyph-name="uni20B6" unicode="&#x20b9;" horiz-adv-x="1228" 
d="M176 1366h565q225 0 351 -117q122 -112 122 -313q0 -60 -7 -107t-35 -107t-78 -106q-123 -114 -340 -114h-224v-115h381v-213h-381v-174h-354v174h-168v213h168v115h-168v246h168v618zM530 1079v-331h119q103 0 150 43q45 41 45 124q0 74 -41 115q-49 49 -152 49h-121z
" />
    <glyph glyph-name="uni20B6" unicode="&#x20b7;" horiz-adv-x="1228" 
d="M176 1366h565q225 0 351 -117q122 -112 122 -313q0 -60 -7 -107t-35 -107t-78 -106q-123 -114 -340 -114h-224v-115h381v-213h-381v-174h-354v174h-168v213h168v115h-168v246h168v618zM530 1079v-331h119q103 0 150 43q45 41 45 124q0 74 -41 115q-49 49 -152 49h-121z
" />
    <glyph glyph-name="uni20B8" unicode="&#x20b8;" horiz-adv-x="1228" 
d="M1083 778h-295v-778h-354v778h-289v281h938v-281zM1083 1147h-938v219h938v-219z" />
    <glyph glyph-name="afii61352" unicode="&#x2116;" horiz-adv-x="2381" 
d="M498 0h-355v1366h355l653 -836v836h354v-1366h-354l-653 836v-836zM1978 719q-168 0 -270 98q-92 92 -92 223q0 138 92 226q100 100 270 100q167 0 265 -96q44 -42 70 -103.5t26 -126.5q0 -60 -25 -120.5t-69 -104.5q-96 -96 -267 -96zM1667 393v195h621v-195h-621z
M1976 1180q-58 0 -96 -35q-41 -36 -41 -105q0 -63 39 -102q37 -37 98 -37q64 0 101 37q39 39 39 102q0 66 -39 105q-35 35 -101 35z" />
    <glyph glyph-name="uni2117" unicode="&#x2117;" horiz-adv-x="1579" 
d="M557 1083h303q152 0 227 -73q68 -68 68 -185q0 -118 -68 -186q-74 -74 -225 -74h-65v-258h-240v776zM797 903v-158h14q56 0 80 19q29 21 29 61t-31 60q-26 18 -78 18h-14zM1538 682q0 -138 -55 -271.5t-154 -232.5q-100 -100 -238 -154.5t-276 -54.5q-136 0 -273 54.5
t-239 154.5q-99 99 -154 232.5t-55 271.5q0 139 55 274t154 232q102 100 239 154.5t273 54.5q138 0 276 -54.5t238 -154.5q99 -97 154 -232t55 -274zM815 1268q-237 0 -405 -168q-172 -172 -172 -418t172 -418q168 -168 405 -168q240 0 408 168q172 172 172 418t-172 418
q-168 168 -408 168z" />
    <glyph glyph-name="trademark" unicode="&#x2122;" horiz-adv-x="1591" 
d="M541 1184h-166v-596h-211v596h-164v182h541v-182zM791 588h-211l129 778h211l147 -399l158 399h211l114 -778h-211l-53 422l-174 -422h-94l-166 422z" />
    <glyph glyph-name="partialdiff" unicode="&#x2202;" horiz-adv-x="1148" 
d="M178 1161l35 225q175 -12 343.5 -71.5t287.5 -171.5q69 -64 117.5 -143.5t73 -159t34.5 -146.5t10 -131q0 -132 -40 -248.5t-115 -197.5q-134 -142 -359 -142q-216 0 -352 131q-143 140 -143 347q0 196 137 329q120 117 297 117q144 0 252 -82q-70 165 -217 246
q-70 39 -168 65.5t-193 32.5zM575 225q81 0 140 56q69 69 69 168q0 51 -19.5 95.5t-51.5 71.5q-56 50 -146 50q-85 0 -143 -52q-72 -66 -72 -165q0 -96 66 -162q62 -62 157 -62z" />
    <glyph glyph-name="product" unicode="&#x220f;" horiz-adv-x="1501" 
d="M82 1290v246h1337v-246h-168v-1556h168v-246h-600v246h150v1556h-434v-1556h145v-246h-598v246h170v1556h-170z" />
    <glyph glyph-name="summation" unicode="&#x2211;" horiz-adv-x="1366" 
d="M43 1536h1227v-506h-240l-26 260h-646l512 -743l-512 -813h664l16 266h250v-512h-1245v266l498 793l-498 723v266z" />
    <glyph glyph-name="minus" unicode="&#x2212;" 
d="M68 573v246h888v-246h-888z" />
    <glyph glyph-name="uni2215" unicode="&#x2215;" horiz-adv-x="1376" 
d="M-61 -385l1046 1878h268l-1048 -1878h-266z" />
    <glyph glyph-name="uni2219" unicode="&#x2219;" horiz-adv-x="507" 
d="M254 469q-101 0 -174 70q-80 77 -80 184q0 49 20.5 99t59.5 87q73 70 174 70q99 0 170 -68q84 -78 84 -188q0 -104 -74 -178q-76 -76 -180 -76z" />
    <glyph glyph-name="radical" unicode="&#x221a;" horiz-adv-x="1366" 
d="M768 1694h598v-240h-367l-337 -1454h-353l-116 555h-193v238h414l37 -172q11 -76 18 -150q8 -66 8 -123v-26h23l2 38q3 85 33 271q24 158 53 284z" />
    <glyph glyph-name="infinity" unicode="&#x221e;" horiz-adv-x="1366" 
d="M999 360q-56 0 -98 11t-88 41q-72 45 -123 110q-62 -71 -139 -116q-77 -46 -182 -46q-148 0 -244 99q-90 90 -90 231q0 144 94 242q47 47 111 71.5t127 24.5q95 0 180 -49q72 -41 129 -111q69 82 151 121q80 39 168 39q65 0 129 -24t109 -66q98 -90 98 -242
q0 -147 -98 -245q-89 -91 -234 -91zM954 791q-40 0 -84 -35q-35 -27 -57 -62q24 -35 57 -61q42 -33 84 -33q48 0 74 29q29 29 29 67q0 37 -27 64q-34 31 -76 31zM410 791q-42 0 -72 -27q-29 -29 -29 -72q0 -36 27 -63q26 -29 74 -29q42 0 84 33q33 26 57 61q-22 35 -57 62
q-44 35 -84 35z" />
    <glyph glyph-name="integral" unicode="&#x222b;" 
d="M649 1153v-1102q0 -194 -8 -260q-13 -134 -88 -209q-94 -94 -274 -94q-92 0 -185 20l49 238q56 -20 115 -20q54 0 82 26q35 33 35 119v1102q0 186 8 250q18 139 84 213q92 100 274 100q81 0 189 -20l-49 -238q-61 20 -115 20q-52 0 -80 -26q-37 -33 -37 -119z" />
    <glyph glyph-name="approxequal" unicode="&#x2248;" 
d="M541 752l-66 24q-116 45 -168 45q-50 0 -88 -35q-34 -34 -59 -90l-146 97l15 30q3 5 16 33.5t18.5 40t18 33.5t25.5 38t28 31q81 78 191 78q57 0 166 -39l86 -30q94 -33 135 -33q56 0 92 33q29 26 55 73l150 -88l-13 -26q-48 -106 -102 -160q-86 -88 -195 -88
q-62 0 -159 33zM541 336l-66 24q-119 46 -168 46q-50 0 -88 -35q-34 -34 -59 -90l-146 96l15 31q3 5 16 33.5t18.5 40t18 33.5t25.5 38t28 31q81 78 191 78q57 0 166 -39l86 -31q94 -33 135 -33q56 0 92 33q28 25 55 74l150 -88l-13 -27q-48 -106 -102 -160
q-86 -88 -195 -88q-62 0 -159 33z" />
    <glyph glyph-name="notequal" unicode="&#x2260;" 
d="M70 965h467l112 221h209l-110 -221h208v-238h-317l-70 -137h387v-240h-493l-101 -194h-208l96 194h-180v240h288l70 137h-358v238z" />
    <glyph glyph-name="lessequal" unicode="&#x2264;" 
d="M68 946l888 424v-248l-608 -288l608 -289v-248l-888 426v223zM68 240h888v-240h-888v240z" />
    <glyph glyph-name="greaterequal" unicode="&#x2265;" 
d="M956 723l-888 -426v248l608 289l-608 288v248l888 -424v-223zM956 0h-888v240h888v-240z" />
    <glyph glyph-name="dotmath" unicode="&#x22c5;" horiz-adv-x="507" 
d="M254 469q-101 0 -174 70q-80 77 -80 184q0 49 20.5 99t59.5 87q73 70 174 70q99 0 170 -68q84 -78 84 -188q0 -104 -74 -178q-76 -76 -180 -76z" />
    <glyph glyph-name="lozenge" unicode="&#x25ca;" horiz-adv-x="1677" 
d="M152 684l530 735l532 -735l-532 -737zM903 684l-221 303l-219 -303l219 -303z" />
    <glyph glyph-name="openbullet" unicode="&#x25e6;" 
d="M516 743q-134 0 -227 93q-92 92 -92 221q0 127 92 217q96 92 221 92q64 0 123 -24.5t102 -65.5q92 -89 92 -219q0 -129 -92 -221q-93 -93 -219 -93zM365 1055q0 -61 41.5 -102.5t105.5 -41.5t105.5 41.5t41.5 102.5t-41.5 102t-105.5 41t-105.5 -41t-41.5 -102z" />
    <glyph glyph-name="uniF400" unicode="&#xf400;" horiz-adv-x="4" 
d="M-459 1493l207 -150l-315 -278l-152 113z" />
    <glyph glyph-name="uniF401" unicode="&#xf401;" horiz-adv-x="4" 
d="M-541 1903l207 -150l-315 -278l-152 112z" />
    <glyph glyph-name="uniF406" unicode="&#xf406;" 
d="M657 1796h211q-2 -135 -90 -223q-92 -92 -266 -92t-266 92q-88 88 -90 223h211q6 -53 41 -84q40 -37 104 -37t104 37q35 31 41 84z" />
    <glyph glyph-name="uniF407" unicode="&#xf407;" 
d="M578 -94l229 -90l-238 -299l-188 82z" />
    <glyph glyph-name="uniF408" unicode="&#xf408;" 
d="M248 1475l-139 157l401 301l405 -301l-145 -157l-260 200z" />
    <glyph glyph-name="uniF409" unicode="&#xf409;" 
d="M307 -508l107 406l307 -33l-209 -397z" />
    <glyph glyph-name="uniF40A" unicode="&#xf40a;" 
d="M303 963l111 430l307 -54l-213 -413z" />
    <glyph glyph-name="uniF40B" unicode="&#xf40b;" 
d="M512 1481q-75 0 -131 53q-55 55 -55 129q0 82 55 137q53 53 131 53t131 -53q55 -55 55 -133q0 -81 -55 -133q-56 -53 -131 -53z" />
    <glyph glyph-name="uniF40C" unicode="&#xf40c;" 
d="M793 1692q0 -82 -54 -136q-75 -75 -227 -75t-227 75q-54 54 -54 136q0 83 54 137q76 76 227 76t227 -76q54 -54 54 -137zM512 1776q-57 0 -88 -31q-21 -21 -21 -51q0 -31 21 -52q30 -30 88 -30t88 30q21 21 21 52q0 30 -21 51q-31 31 -88 31z" />
    <glyph glyph-name="uniF40D" unicode="&#xf40d;" 
d="M719 1776l158 -95q-14 -36 -40 -76.5t-51 -64.5q-59 -59 -147 -59q-54 0 -119 30l-61 31q-49 25 -74 25t-46.5 -21.5t-31.5 -64.5l-160 94q29 89 82 139q62 58 144 58q53 0 123 -29l59 -27q68 -30 88 -30q50 0 76 90z" />
    <glyph glyph-name="uniF40E" unicode="&#xf40e;" 
d="M739 -182l-45 -176q-64 -37 -135 -37q-95 0 -149 57q-43 49 -43 107q0 66 41 125q48 68 114 106h152q-53 -34 -80 -61q-39 -39 -39 -80q0 -33 23 -56q22 -22 59 -22q48 0 102 37z" />
    <glyph glyph-name="uniF4C6" unicode="&#xf4c6;" horiz-adv-x="1351" 
d="M852 1366h356v-1505q0 -51 -4 -88t-25 -86.5t-59 -83.5q-28 -25 -61.5 -41t-71.5 -22.5t-65.5 -8.5t-65.5 -2q-51 0 -74.5 0.5t-55 5t-64.5 14.5v234q30 -12 69 -12q66 0 94 28q27 27 27 97v641q-141 -21 -285 -21q-264 0 -372 102q-109 102 -109 324v424h356v-371
q0 -100 41 -141q43 -43 168 -43q109 0 201 14v541z" />
    <glyph glyph-name="uniF4C7" unicode="&#xf4c7;" horiz-adv-x="1101" 
d="M662 915h327v-1060q0 -175 -86 -254q-49 -45 -111.5 -58.5t-142.5 -13.5q-95 0 -176 16v232q26 -13 64 -13q69 0 98 31q27 29 27 113v391q-95 -23 -197 -23q-206 0 -297 91q-82 82 -82 260v288h315v-266q0 -75 35 -104q29 -25 107 -25q71 0 119 15v380z" />
    <glyph glyph-name="uniF4CC" unicode="&#xf4cc;" horiz-adv-x="1275" 
d="M0 1366h397l260 -608l228 608h379l-615 -1366h-375l191 383zM745 1903l207 -150l-315 -278l-152 112z" />
    <glyph glyph-name="uniF4CD" unicode="&#xf4cd;" horiz-adv-x="1236" 
d="M135 -469l307 594l-442 790h381l244 -469l237 469h375l-735 -1384h-367zM731 1493l207 -150l-315 -278l-152 113z" />
    <glyph glyph-name="dollar.fitted" unicode="&#xf5f5;" horiz-adv-x="1064" 
d="M461 1587h205v-225q148 -9 309 -105l-135 -262q-113 88 -230 88q-84 0 -123 -36q-30 -26 -30 -68q0 -40 28 -68q35 -32 95 -51l106 -37q53 -18 80.5 -28.5t74.5 -38t83 -62.5q102 -99 102 -250q0 -189 -115 -309q-43 -45 -109 -80t-136 -53v-231h-205v221q-119 3 -232 49
q-107 45 -198 117l147 274q72 -69 141 -104q96 -47 187 -47q86 0 133 47q37 37 37 86q0 48 -41 78q-27 19 -92 40l-121 41q-156 54 -225 127q-88 91 -88 238q0 175 102 289q96 107 250 135v225z" />
    <glyph glyph-name="Euro.fitted" unicode="&#xf5f6;" horiz-adv-x="1323" 
d="M1194 389v-342q-155 -78 -352 -78q-117 0 -232.5 31t-199.5 96q-75 59 -130.5 149.5t-80.5 194.5h-160l74 185h61q-3 47 0 102h-135l74 184h88q52 220 229 351q180 133 453 133q211 0 372 -90l-118 -299q-122 77 -269 77q-122 0 -200 -45q-83 -45 -111 -127h549l-74 -184
h-512q-5 -44 2 -102h469l-73 -185h-351q32 -74 115 -118q78 -41 195 -41q194 0 317 108z" />
    <glyph glyph-name="cent.fitted" unicode="&#xf5f7;" horiz-adv-x="819" 
d="M455 1352h192v-187q55 -3 107 -30v-295q-69 69 -164 69q-93 0 -154 -61q-67 -67 -67 -164q0 -98 67 -162q63 -57 154 -57q94 0 164 70v-295q-57 -26 -107 -29v-191h-192v179q-174 24 -293 143q-64 66 -100.5 155.5t-36.5 188.5q0 103 39.5 196t105.5 158q112 112 285 138
v174z" />
    <glyph glyph-name="sterling.fitted" unicode="&#xf5f8;" horiz-adv-x="1277" 
d="M332 516h-256v197h147q-49 114 -49 217q0 87 33.5 172t101.5 151q143 138 402 138q243 0 368 -127q123 -123 123 -336q0 -37 -2 -51h-356q2 16 2 49q0 94 -49 143q-46 43 -113 43q-77 0 -121 -51q-49 -55 -49 -141q0 -91 51 -207h314v-197h-256q8 -56 8 -102
q0 -51 -17 -113l97 -29q136 -41 192 -41q43 0 66.5 25.5t23.5 65.5h221q-2 -81 -32 -155.5t-82 -121.5q-79 -74 -209 -74q-88 0 -217 41l-78 25q-102 31 -182 31q-98 0 -125 -68h-236q12 64 42.5 126.5t68.5 102.5q73 77 180 93q12 38 12 86q0 56 -24 108z" />
    <glyph glyph-name="yen.fitted" unicode="&#xf5f9;" horiz-adv-x="1300" 
d="M461 674h-334v215h205l-289 477h403l205 -393l197 393h409l-301 -477h215v-215h-350l-12 -19v-108h362v-213h-362v-334h-336v334h-346v213h346v108z" />
    <glyph glyph-name="florin.fitted" unicode="&#xf5fa;" horiz-adv-x="1265" 
d="M438 231l88 488h-155l32 196h160l43 228q33 174 119 262q108 111 299 111q118 0 219 -52l-53 -284q-56 45 -127 45q-60 0 -94 -37q-30 -34 -49 -139l-25 -134h199l-37 -196h-199l-94 -526q-57 -319 -178 -443q-133 -135 -389 -135q-99 0 -177 18l54 299q52 -18 116 -18
q98 0 146 45q34 30 57.5 94.5t44.5 177.5z" />
    <glyph glyph-name="uni20B4.fitted" unicode="&#xf5fb;" horiz-adv-x="1167" 
d="M268 1020l-137 260q221 117 492 117q204 0 303 -72q110 -83 110 -219q0 -98 -59 -164h139v-215h-309l-135 -127h444v-213h-598q-26 -26 -26 -63q0 -45 36 -64q40 -22 127 -22q165 0 308 75l141 -241q-122 -59 -265.5 -87t-271.5 -28q-213 0 -323 68q-127 82 -127 223
q0 77 49 139h-119v213h264l135 127h-399v215h569q33 33 33 74q0 43 -33 69q-41 27 -106 27q-122 0 -242 -92z" />
    <glyph glyph-name="uni20B6.fitted" unicode="&#xf5fc;" horiz-adv-x="1288" 
d="M217 1366h565q225 0 351 -117q122 -112 122 -313q0 -60 -7 -107t-35 -107t-78 -106q-123 -114 -340 -114h-224v-115h381v-213h-381v-174h-354v174h-168v213h168v115h-168v246h168v618zM571 1079v-331h119q103 0 150 43q45 41 45 124q0 74 -41 115q-49 49 -152 49h-121z
" />
    <glyph glyph-name="uni20B8.fitted" unicode="&#xf5fd;" horiz-adv-x="1015" 
d="M977 778h-295v-778h-354v778h-289v281h938v-281zM977 1147h-938v219h938v-219z" />
    <glyph glyph-name="numbersign.fitted" unicode="&#xf5ff;" horiz-adv-x="1302" 
d="M997 612h207l-35 -239h-208l-60 -373h-274l61 373h-174l-59 -373h-271l62 373h-209l37 239h207l28 170h-207l37 238h207l55 346h271l-58 -346h174l56 346h272l-55 -346h205l-37 -238h-205zM725 612l27 170h-174l-27 -170h174z" />
    <glyph glyph-name="uniF639" unicode="&#xf639;" horiz-adv-x="1277" 
d="M639 1079q-63 0 -109 -43q-53 -45 -85.5 -150t-32.5 -206q0 -94 31.5 -201t86.5 -155q46 -43 109 -43t109 43q54 47 86 152.5t32 201.5q0 97 -33.5 205t-84.5 153q-46 43 -109 43zM1219 682q0 -176 -54 -320t-149 -237q-78 -76 -176.5 -116t-200.5 -40t-200.5 40
t-176.5 116q-95 93 -149 237t-54 320q0 177 54 321.5t149 237.5q78 76 176.5 116t200.5 40t200.5 -40t176.5 -116q95 -93 149 -237.5t54 -321.5z" />
    <glyph glyph-name="uniF63A" unicode="&#xf63a;" horiz-adv-x="1218" 
d="M1149 301v-301h-1096l346 362q182 191 281 347q74 114 74 213q0 86 -41 131q-36 41 -101 41q-74 0 -118 -56q-45 -59 -50 -168h-366q1 123 44.5 219.5t106.5 159.5q148 148 387 148q243 0 385 -142q134 -134 134 -335q0 -122 -51.5 -217t-151.5 -189l-230 -213h447z" />
    <glyph glyph-name="uniF63B" unicode="&#xf63b;" horiz-adv-x="1193" 
d="M45 467h363q3 -85 55 -137q51 -54 139 -54q83 0 139 60q41 46 41 113q0 78 -53 120q-47 39 -131 39q-35 0 -59 -8v240q91 -13 145 34q45 40 45 97q0 27 -11 55t-26 43q-37 37 -100 37t-98 -35q-48 -45 -48 -121h-329q6 99 43.5 180.5t89.5 133.5q128 133 360 133
q217 0 340 -121q111 -111 111 -264q0 -95 -41 -168q-40 -72 -105 -105q100 -37 162 -125q58 -85 58 -200q0 -178 -121 -299q-146 -146 -408 -146q-239 0 -391 142q-63 56 -111 146t-59 210z" />
    <glyph glyph-name="uniF63C" unicode="&#xf63c;" horiz-adv-x="1232" 
d="M1014 1366v-836h166v-272h-166v-258h-328v258h-661v227l526 881h463zM365 530h321v557z" />
    <glyph glyph-name="uniF63D" unicode="&#xf63d;" horiz-adv-x="1132" 
d="M975 1366v-301h-473l-25 -152q70 11 111 11q230 0 360 -136q125 -125 125 -323q0 -207 -131 -342q-149 -154 -426 -154q-266 0 -461 123l54 332q83 -76 163 -111q99 -47 205 -47q113 0 178 68q54 57 54 139q0 91 -66 148q-75 67 -246 67q-138 0 -252 -57l119 735h711z
" />
    <glyph glyph-name="uniF63E" unicode="&#xf63e;" horiz-adv-x="1245" 
d="M555 1366h403l-389 -465q95 43 191 43q80 0 162 -33t147 -98q129 -129 129 -326q0 -215 -141 -356q-162 -162 -436 -162q-287 0 -449 166q-125 129 -125 320q0 244 203 510zM614 250q95 0 158 63q64 64 64 156q0 82 -64 143q-66 64 -158 64q-87 0 -153 -60
q-68 -62 -68 -141q0 -93 60 -156q66 -69 161 -69z" />
    <glyph glyph-name="uniF63F" unicode="&#xf63f;" horiz-adv-x="1257" 
d="M70 0l622 1065h-569v301h1120l-782 -1366h-391z" />
    <glyph glyph-name="uniF640" unicode="&#xf640;" horiz-adv-x="1161" 
d="M821 719q103 -32 176 -105q105 -102 105 -241q0 -147 -111 -258q-146 -146 -413 -146q-264 0 -408 144q-54 54 -83.5 123t-29.5 137q0 66 28.5 133.5t72.5 111.5q32 32 79.5 59.5t92.5 41.5q-73 28 -123 78q-92 92 -92 217q0 75 30 142.5t82 115.5q64 59 159 92t206 33
q109 0 200 -34.5t152 -96.5q100 -100 100 -250q0 -130 -83 -213q-55 -55 -140 -84zM584 1159q-69 0 -113 -47q-41 -44 -41 -104q0 -53 43 -99q42 -45 109 -45q59 0 100 41q47 47 47 105q0 64 -47 108q-44 41 -98 41zM580 575q-65 0 -115 -47q-49 -49 -49 -112q0 -68 47 -115
q49 -49 117 -49q67 0 114 47q49 49 49 117q0 66 -49 112q-50 47 -114 47z" />
    <glyph glyph-name="uniF641" unicode="&#xf641;" horiz-adv-x="1253" 
d="M694 0h-401l387 461q-79 -43 -182 -43q-186 0 -314 125q-137 135 -137 329q0 210 137 353q168 172 449 172q276 0 438 -162q65 -67 100 -155t35 -183q0 -234 -207 -502zM637 1116q-93 0 -158 -65q-67 -67 -67 -156q0 -86 65 -147q65 -62 160 -62q91 0 154 57q31 28 51 72
t20 84q0 39 -18.5 81.5t-46.5 70.5q-69 65 -160 65z" />
    <glyph glyph-name="uniF6BA" unicode="&#xf6ba;" horiz-adv-x="722" 
d="M102 561v273h519v-273h-519z" />
    <glyph glyph-name="uniF6BB" unicode="&#xf6bb;" horiz-adv-x="1175" 
d="M143 563v271h889v-271h-889z" />
    <glyph glyph-name="uniF6BC" unicode="&#xf6bc;" horiz-adv-x="1857" 
d="M143 563v271h1571v-271h-1571z" />
    <glyph glyph-name="uniF6C3" unicode="&#xf6c3;" 
d="M307 -487l107 385l307 -33l-209 -377z" />
    <glyph glyph-name="uniF6C9" unicode="&#xf6c9;" 
d="M621 1903l206 -150l-315 -278l-152 112z" />
    <glyph glyph-name="uniF6CA" unicode="&#xf6ca;" 
d="M510 1475l-401 301l139 157l262 -200l260 200l145 -157z" />
    <glyph glyph-name="uniF6CB" unicode="&#xf6cb;" 
d="M743 1481q-73 0 -125 55q-51 57 -51 123q0 63 54 125q53 53 122 53q72 0 123 -51q56 -56 56 -127q0 -68 -54 -125q-53 -53 -125 -53zM279 1481q-73 0 -125 55q-52 58 -52 123q0 63 54 125q53 53 123 53q71 0 122 -51q56 -56 56 -127q0 -68 -54 -125q-53 -53 -124 -53z
" />
    <glyph glyph-name="uniF6CE" unicode="&#xf6ce;" 
d="M512 1475l-315 278l209 150l258 -316z" />
    <glyph glyph-name="uniF6CF" unicode="&#xf6cf;" 
d="M449 1903l169 -150l-280 -278l-111 112zM803 1903l172 -150l-281 -278l-112 112z" />
    <glyph glyph-name="uniF6D0" unicode="&#xf6d0;" 
d="M127 1534v201h770v-201h-770z" />
    <glyph glyph-name="uniF6D1" unicode="&#xf6d1;" 
d="M702 1833l238 -90q-50 -135 -168 -199q-95 -53 -262 -53q-159 0 -258 53q-118 64 -168 199l238 90q20 -65 65 -96q44 -33 125 -33q78 0 125 33q45 31 65 96z" />
    <glyph glyph-name="uniF6D4" unicode="&#xf6d4;" 
d="M670 1384l219 -77q-34 -124 -139 -189q-91 -57 -238 -57t-238 57q-105 65 -139 189l219 77q15 -54 47 -86q39 -41 111 -41t111 41q32 32 47 86z" />
    <glyph glyph-name="uniF6DC" unicode="&#xf6dc;" horiz-adv-x="673" 
d="M233 0v1065h-194v301h549v-1366h-355z" />
    <glyph glyph-name="uniF6DE" unicode="&#xf6de;" horiz-adv-x="1392" 
d="M106 408v270h1180v-270h-1180z" />
    <glyph glyph-name="nbspace" horiz-adv-x="477" 
 />
    <glyph glyph-name="hyphenminus" horiz-adv-x="722" 
d="M102 414v272h519v-272h-519z" />
    <glyph glyph-name="dotlessi1" horiz-adv-x="546" 
d="M109 915h327v-915h-327v915z" />
    </font>
</defs>
</svg>
